sww
sww
论坛版主
论坛版主
  • 注册日期2015-12-13
  • 发帖数1564
  • 影币36009枚
  • 魔力值2128点
  • 蓝光币81克拉
  • 社区居民
  • 最爱沙发
  • 忠实会员
  • 喜欢达人
  • 原创写手
阅读:2227回复:35

[动作]空手道 The.Empty.Hands.2017.1080p.BluRay.x264-WiKi 蓝光电影 1080P 剧情 6.56 GB

楼主#
更多 发布于:2018-02-17 11:46



【中文片名】:空手道
【片名】:空手道
【又名】:The Empty Hands
【国家】:香港
【影片类型】:剧情
【影片年代】:2017
【导演】:杜汶泽
【编剧】:杜汶泽,李敏 Erica Lee
【主演】:邓丽欣 Stephy Tang,杜汶泽,仓田保昭 Yasuaki Kurata,欧锦棠 Stephen Au,陈静 Dada Chan,刘皓岚 Leander Lau,柳俊江 Ryan Lau
【时长】:90分钟
【上映时间】:2017-11-01(香港亚洲电影节)
【imdb】:tt7599050
【评分】:imdb7.5 豆瓣5.8
影片简介
出身空手道世家的港日混血儿平川真理,因丧父、失恋而一蹶不振,在杜汶泽饰演的师傅地狱式训练和激励下越战越强,最大敌人原来是自己。本身是空手道高手的杜汶泽当上导演不再搞笑,化身监制、导演、编剧、主演、武术指导,执意拍摄武术搏击严肃题材,邀请自己师傅、空手道七段的仓田保昭和武术爱好者欧锦棠上场,拍出独有韵味。执导筒犹如拾起空手道袍,纯粹想挑战自己。


 
MediaInfo
Video
ID                                       : 1
Format                                   : AVC
Format/Info                              : Advanced Video Codec
Format profile                           : High@L4.1
Format settings                          : CABAC / 5 Ref Frames
Format settings, CABAC                   : Yes
Format settings, ReFrames                : 5 frames
Codec ID                                 : V_MPEG4/ISO/AVC
Duration                                 : 1 h 27 min
Bit rate                                 : 10.1 Mb/s
Width                                    : 1 920 pixels
Height                                   : 816 pixels
Display aspect ratio                     : 2.35:1
Frame rate mode                          : Constant
Frame rate                               : 24.000 FPS
Color space                              : YUV
Chroma subsampling                       : 4:2:0
Bit depth                                : 8 bits
Scan type                                : Progressive
Bits/(Pixel*Frame)                       : 0.269
Stream size                              : 6.16 GiB (94%)
Writing library                          : x264 core 129 r2245+704+36 8e61944 tMod+MixAQ [8-bit@4:2:0 X86_64]
Encoding settings                        : cabac=1 / ref=5 / deblock=1:-3:-3 / analyse=0x3:0x133 / me=umh / subme=11 / psy=1 / fade_compensate=0.00 / psy_rd=1.05:0.10 / mixed_ref=1 / me_range=64 / chroma_me=1 / trellis=2 / 8x8dct=1 / cqm=0 / deadzone=21,11 / fast_pskip=0 / chroma_qp_offset=-3 / threads=18 / lookahead_threads=3 / sliced_threads=0 / nr=0 / decimate=0 / interlaced=0 / bluray_compat=0 / constrained_intra=0 / fgo=0 / bframes=10 / b_pyramid=2 / b_adapt=2 / b_bias=0 / direct=3 / weightb=1 / open_gop=0 / weightp=2 / keyint=250 / keyint_min=24 / scenecut=40 / intra_refresh=0 / rc=2pass / mbtree=0 / bitrate=10124 / ratetol=1.0 / qcomp=0.70 / qpmin=0 / qpmax=69 / qpstep=4 / cplxblur=20.0 / qblur=0.5 / ip_ratio=1.40 / pb_ratio=1.30 / aq=1 / aq-strength=0.90 / aq-sensitivity=10.00 / aq-ifactor=1.00 / aq-pfactor=1.00 / aq-bfactor=1.00 / aq2=0
Language                                 : Chinese
Default                                  : Yes
Forced                                   : No
Color range                              : Limited
Matrix coefficients                      : BT.709

Audio
ID                                       : 2
Format                                   : AC-3
Format/Info                              : Audio Coding 3
Codec ID                                 : A_AC3
Duration                                 : 1 h 27 min
Bit rate mode                            : Constant
Bit rate                                 : 640 kb/s
Channel(s)                               : 6 channels
Channel positions                        : Front: L C R, Side: L R, LFE
Sampling rate                            : 48.0 kHz
Frame rate                               : 31.250 FPS (1536 SPF)
Bit depth                                : 16 bits
Compression mode                         : Lossy
Stream size                              : 400 MiB (6%)
Language                                 : Chinese
Service kind                             : Complete Main
Default                                  : Yes
Forced                                   : No

Text #1
ID                                       : 3
Format                                   : UTF-8
Codec ID                                 : S_TEXT/UTF8
Codec ID/Info                            : UTF-8 Plain Text
Duration                                 : 1 h 15 min
Bit rate                                 : 25 b/s
Count of elements                        : 518
Stream size                              : 14.3 KiB (0%)
Title                                    : Simplified
Language                                 : Chinese
Default                                  : Yes
Forced                                   : No

Text #2
ID                                       : 4
Format                                   : UTF-8
Codec ID                                 : S_TEXT/UTF8
Codec ID/Info                            : UTF-8 Plain Text
Duration                                 : 1 h 15 min
Bit rate                                 : 25 b/s
Count of elements                        : 518
Stream size                              : 14.3 KiB (0%)
Title                                    : Traditional
Language                                 : Chinese
Default                                  : No
Forced                                   : No

Menu
00:00:00.000                             : en:00:00:00.000
00:06:55.125                             : en:00:06:55.125
00:13:06.458                             : en:00:13:06.458
00:21:21.375                             : en:00:21:21.375
00:30:28.708                             : en:00:30:28.708
00:36:17.791                             : en:00:36:17.791
00:42:30.208                             : en:00:42:30.208
00:50:30.916                             : en:00:50:30.916
00:58:21.083                             : en:00:58:21.083
01:05:31.291                             : en:01:05:31.291
01:13:47.916                             : en:01:13:47.916
01:22:19.041                             : en:01:22:19.041
空手道The.Empty.Hands.2017.1080p.BluRay.x264-WiKi 6.56G.torrent

最新喜欢:

wtswts
sd201516
精灵王
精灵王
  • 注册日期2015-09-27
  • 发帖数221
  • 影币2枚
  • 魔力值1153点
  • 蓝光币10克拉
  • 社区居民
  • 忠实会员
沙发#
发布于:2018-02-17 12:57
many thanks!!!
zxcv2222
精灵王
精灵王
  • 注册日期2016-09-18
  • 发帖数535
  • 影币2771枚
  • 魔力值1357点
  • 蓝光币94克拉
  • 社区居民
  • 忠实会员
板凳#
发布于:2018-02-17 14:31
感谢分享
xyvv
侠客
侠客
  • 注册日期2018-01-05
  • 发帖数16
  • 影币2枚
  • 魔力值222点
  • 蓝光币1克拉
  • 社区居民
  • 忠实会员
地板#
发布于:2018-02-17 17:22
 谢谢  等狠旧了  终于来了  SO MAZING
fycx
圣骑士
圣骑士
  • 注册日期2016-10-01
  • 发帖数144
  • 影币28枚
  • 魔力值580点
  • 蓝光币6克拉
  • 社区居民
4楼#
发布于:2018-02-17 17:34
感谢分享
zhwhome
精灵王
精灵王
  • 注册日期2015-07-28
  • 发帖数1520
  • 影币2727枚
  • 魔力值2937点
  • 蓝光币274克拉
  • 社区居民
  • 最爱沙发
  • 忠实会员
5楼#
发布于:2018-02-17 18:35
支持谢谢分享
poonremote
精灵王
精灵王
  • 注册日期2016-12-04
  • 发帖数651
  • 影币560枚
  • 魔力值602点
  • 蓝光币91克拉
6楼#
发布于:2018-02-17 18:49
辛苦楼主!并祝大家新年快乐!
prc
prc
骑士
骑士
  • 注册日期2016-12-10
  • 发帖数59
  • 影币0枚
  • 魔力值512点
  • 蓝光币6克拉
  • 社区居民
  • 忠实会员
7楼#
发布于:2018-02-17 20:29
感谢分享
584906284
骑士
骑士
  • 注册日期2017-11-26
  • 发帖数50
  • 影币0枚
  • 魔力值427点
  • 蓝光币0克拉
8楼#
发布于:2018-02-18 12:09
萨芬的的师傅
k120
骑士
骑士
  • 注册日期2017-12-22
  • 发帖数52
  • 影币25枚
  • 魔力值394点
  • 蓝光币8克拉
  • 社区居民
  • 忠实会员
9楼#
发布于:2018-02-18 13:24
谢谢楼主分享!
sllhfxsj
圣骑士
圣骑士
  • 注册日期2016-08-06
  • 发帖数376
  • 影币390枚
  • 魔力值352点
  • 蓝光币309克拉
10楼#
发布于:2018-02-18 17:32
很不错的片子,很适合船节期间全家观看
2badao
骑士
骑士
  • 注册日期2017-01-12
  • 发帖数111
  • 影币113枚
  • 魔力值280点
  • 蓝光币38克拉
  • 社区居民
  • 忠实会员
11楼#
发布于:2018-02-18 20:54
many thanks!!!
simplesimon
精灵王
精灵王
  • 注册日期2015-08-10
  • 发帖数223
  • 影币4枚
  • 魔力值1065点
  • 蓝光币11克拉
  • 社区居民
  • 忠实会员
12楼#
发布于:2018-02-19 00:13
这个是粤语的吗?
goodsyl
精灵王
精灵王
  • 注册日期2015-07-29
  • 发帖数141
  • 影币23枚
  • 魔力值1218点
  • 蓝光币26克拉
  • 社区居民
  • 忠实会员
13楼#
发布于:2018-02-19 09:44
感谢分享
beyondhing99
骑士
骑士
  • 注册日期2015-09-28
  • 发帖数361
  • 影币1枚
  • 魔力值64点
  • 蓝光币0克拉
14楼#
发布于:2018-02-19 17:50
dddddddddddddddddddddddddddddddddddddddd
上一页
游客
返回顶部