sww
sww
论坛版主
论坛版主
  • 注册日期2015-12-13
  • 发帖数1519
  • 影币34432枚
  • 魔力值1966点
  • 蓝光币81克拉
  • 社区居民
  • 最爱沙发
  • 忠实会员
  • 喜欢达人
  • 原创写手
阅读:1136回复:19

[动作]空手道 The.Empty.Hands.2017.720p.BluRay.x264-WiKi 蓝光电影 720P 剧情 3.19 GB

楼主#
更多 发布于:2018-02-17 11:43

【中文片名】:空手道
【片名】:空手道
【又名】:The Empty Hands
【国家】:香港
【影片类型】:剧情
【影片年代】:2017
【导演】:杜汶泽
【编剧】:杜汶泽,李敏 Erica Lee
【主演】:邓丽欣 Stephy Tang,杜汶泽,仓田保昭 Yasuaki Kurata,欧锦棠 Stephen Au,陈静 Dada Chan,刘皓岚 Leander Lau,柳俊江 Ryan Lau
【时长】:90分钟
【上映时间】:2017-11-01(香港亚洲电影节)
【imdb】:tt7599050
【评分】:imdb7.5 豆瓣5.8
影片简介
出身空手道世家的港日混血儿平川真理,因丧父、失恋而一蹶不振,在杜汶泽饰演的师傅地狱式训练和激励下越战越强,最大敌人原来是自己。本身是空手道高手的杜汶泽当上导演不再搞笑,化身监制、导演、编剧、主演、武术指导,执意拍摄武术搏击严肃题材,邀请自己师傅、空手道七段的仓田保昭和武术爱好者欧锦棠上场,拍出独有韵味。执导筒犹如拾起空手道袍,纯粹想挑战自己。





 MediaInfo
Video
ID                                       : 1
Format                                   : AVC
Format/Info                              : Advanced Video Codec
Format profile                           : High@L4.1
Format settings                          : CABAC / 12 Ref Frames
Format settings, CABAC                   : Yes
Format settings, ReFrames                : 12 frames
Codec ID                                 : V_MPEG4/ISO/AVC
Duration                                 : 1 h 27 min
Bit rate                                 : 4 612 kb/s
Width                                    : 1 280 pixels
Height                                   : 544 pixels
Display aspect ratio                     : 2.35:1
Frame rate mode                          : Constant
Frame rate                               : 24.000 FPS
Color space                              : YUV
Chroma subsampling                       : 4:2:0
Bit depth                                : 8 bits
Scan type                                : Progressive
Bits/(Pixel*Frame)                       : 0.276
Stream size                              : 2.80 GiB (88%)
Writing library                          : x264 core 129 r2245+704+36 8e61944 tMod+MixAQ [8-bit@4:2:0 X86_64]
Encoding settings                        : cabac=1 / ref=12 / deblock=1:-3:-3 / analyse=0x3:0x133 / me=umh / subme=11 / psy=1 / fade_compensate=0.00 / psy_rd=1.05:0.10 / mixed_ref=1 / me_range=32 / chroma_me=1 / trellis=2 / 8x8dct=1 / cqm=0 / deadzone=21,11 / fast_pskip=0 / chroma_qp_offset=-3 / threads=18 / lookahead_threads=3 / sliced_threads=0 / nr=0 / decimate=0 / interlaced=0 / bluray_compat=0 / constrained_intra=0 / fgo=0 / bframes=10 / b_pyramid=2 / b_adapt=2 / b_bias=0 / direct=3 / weightb=1 / open_gop=0 / weightp=2 / keyint=250 / keyint_min=24 / scenecut=40 / intra_refresh=0 / rc=2pass / mbtree=0 / bitrate=4612 / ratetol=1.0 / qcomp=0.70 / qpmin=0 / qpmax=69 / qpstep=4 / cplxblur=20.0 / qblur=0.5 / ip_ratio=1.40 / pb_ratio=1.30 / aq=1 / aq-strength=0.90 / aq-sensitivity=10.00 / aq-ifactor=1.00 / aq-pfactor=1.00 / aq-bfactor=1.00 / aq2=0
Language                                 : Chinese
Default                                  : Yes
Forced                                   : No

Audio
ID                                       : 2
Format                                   : AC-3
Format/Info                              : Audio Coding 3
Codec ID                                 : A_AC3
Duration                                 : 1 h 27 min
Bit rate mode                            : Constant
Bit rate                                 : 640 kb/s
Channel(s)                               : 6 channels
Channel positions                        : Front: L C R, Side: L R, LFE
Sampling rate                            : 48.0 kHz
Frame rate                               : 31.250 FPS (1536 SPF)
Bit depth                                : 16 bits
Compression mode                         : Lossy
Stream size                              : 400 MiB (12%)
Language                                 : Chinese
Service kind                             : Complete Main
Default                                  : Yes
Forced                                   : No

Text #1
ID                                       : 3
Format                                   : UTF-8
Codec ID                                 : S_TEXT/UTF8
Codec ID/Info                            : UTF-8 Plain Text
Duration                                 : 1 h 15 min
Bit rate                                 : 25 b/s
Count of elements                        : 518
Stream size                              : 14.3 KiB (0%)
Title                                    : Simplified
Language                                 : Chinese
Default                                  : Yes
Forced                                   : No

Text #2
ID                                       : 4
Format                                   : UTF-8
Codec ID                                 : S_TEXT/UTF8
Codec ID/Info                            : UTF-8 Plain Text
Duration                                 : 1 h 15 min
Bit rate                                 : 25 b/s
Count of elements                        : 518
Stream size                              : 14.3 KiB (0%)
Title                                    : Traditional
Language                                 : Chinese
Default                                  : No
Forced                                   : No

Menu
00:00:00.000                             : en:00:00:00.000
00:06:55.125                             : en:00:06:55.125
00:13:06.458                             : en:00:13:06.458
00:21:21.375                             : en:00:21:21.375
00:30:28.708                             : en:00:30:28.708
00:36:17.791                             : en:00:36:17.791
00:42:30.208                             : en:00:42:30.208
00:50:30.916                             : en:00:50:30.916
00:58:21.083                             : en:00:58:21.083
01:05:31.291                             : en:01:05:31.291
01:13:47.916                             : en:01:13:47.916
01:22:19.041                             : en:01:22:19.041

空手道The.Empty.Hands.2017.720p.BluRay.x264-WiKi 3.19G.torrent
 

最新喜欢:

rabbtimingrabbti... chemachema
newia
骑士
骑士
  • 注册日期2016-12-16
  • 发帖数50
  • 影币0枚
  • 魔力值352点
  • 蓝光币0克拉
  • 社区居民
  • 忠实会员
沙发#
发布于:2018-02-17 12:00
666
yl7505
圣骑士
圣骑士
  • 注册日期2016-07-07
  • 发帖数140
  • 影币76枚
  • 魔力值816点
  • 蓝光币18克拉
板凳#
发布于:2018-02-17 13:30
666
xyvv
侠客
侠客
  • 注册日期2018-01-05
  • 发帖数16
  • 影币2枚
  • 魔力值222点
  • 蓝光币1克拉
  • 社区居民
  • 忠实会员
地板#
发布于:2018-02-17 17:25
6666666666666来了来了
ANT
ANT
圣骑士
圣骑士
  • 注册日期2015-07-29
  • 发帖数171
  • 影币682枚
  • 魔力值722点
  • 蓝光币12克拉
  • 社区居民
4楼#
发布于:2018-02-17 18:00
6666666666666
haiming8418
精灵王
精灵王
  • 注册日期2015-07-29
  • 发帖数1193
  • 影币1126枚
  • 魔力值2028点
  • 蓝光币93克拉
  • 忠实会员
5楼#
发布于:2018-02-17 19:16
感谢楼主分享好片
michaelhow
侠客
侠客
  • 注册日期2016-08-26
  • 发帖数50
  • 影币18枚
  • 魔力值150点
  • 蓝光币13克拉
6楼#
发布于:2018-02-17 22:48
感谢楼主分享,我挺喜欢杜汶泽的片
zijinghuakai
骑士
骑士
  • 注册日期2015-07-31
  • 发帖数64
  • 影币4枚
  • 魔力值295点
  • 蓝光币4克拉
7楼#
发布于:2018-02-18 10:14
垃圾杜汶泽。。
Bleach
精灵王
精灵王
  • 注册日期2015-07-30
  • 发帖数145
  • 影币2枚
  • 魔力值1287点
  • 蓝光币0克拉
  • 社区居民
  • 忠实会员
8楼#
发布于:2018-02-18 11:42
谢谢楼主分享,辛苦楼主了~!
ttyh
精灵王
精灵王
  • 注册日期2016-12-20
  • 发帖数777
  • 影币636枚
  • 魔力值438点
  • 蓝光币132克拉
9楼#
发布于:2018-02-18 12:22
感謝分享
kid888
骑士
骑士
  • 注册日期2015-07-31
  • 发帖数29
  • 影币71枚
  • 魔力值442点
  • 蓝光币0克拉
  • 社区居民
10楼#
发布于:2018-02-19 01:11
只有粤语,没有国语
风里密码
精灵王
精灵王
  • 注册日期2016-09-08
  • 发帖数265
  • 影币32枚
  • 魔力值873点
  • 蓝光币8克拉
  • 社区居民
  • 忠实会员
11楼#
发布于:2018-02-19 09:00
感谢楼主分享好片
goodsyl
精灵王
精灵王
  • 注册日期2015-07-29
  • 发帖数133
  • 影币21枚
  • 魔力值1120点
  • 蓝光币22克拉
  • 社区居民
  • 忠实会员
12楼#
发布于:2018-02-19 09:45
谢谢楼主分享。新年快乐
gt4506778
骑士
骑士
  • 注册日期2017-02-24
  • 发帖数19
  • 影币0枚
  • 魔力值490点
  • 蓝光币0克拉
  • 社区居民
  • 忠实会员
13楼#
发布于:2018-02-19 22:19
666
zype
骑士
骑士
  • 注册日期2017-02-16
  • 发帖数86
  • 影币16枚
  • 魔力值326点
  • 蓝光币21克拉
  • 社区居民
  • 忠实会员
14楼#
发布于:2018-02-20 09:12
谢谢分享!
上一页
游客
返回顶部