sww
sww
论坛版主
论坛版主
  • 注册日期2015-12-13
  • 发帖数1519
  • 影币34432枚
  • 魔力值1966点
  • 蓝光币81克拉
  • 社区居民
  • 最爱沙发
  • 忠实会员
  • 喜欢达人
  • 原创写手
阅读:632回复:2

[动作]鲛珠传 Legend.of.the.Naga.Pearls.2017.CHINESE.1080p.BluRay.REMUX.AVC.DTS-HD.MA.5.1-FGT 蓝光电影 Remux 动作 / 喜剧 / 奇幻 / 爱情 / 動作 Action 20.47 GB

楼主#
更多 发布于:2018-02-17 11:19

◎译  名 LegendoftheNagaPearls
◎片  名 鲛珠传
◎年  代 2017
◎产  地 中国大陆/香港
◎类  别 喜剧/动作/爱情/奇幻
◎语  言 汉语普通话
◎上映日期 2017-08-11(中国大陆)
◎IMDb评分  5.6/10 from 116 users
◎IMDb链接  http://www.imdb.com/title/tt6288650/
◎豆瓣评分 4.4/10 from 21,798 users
◎豆瓣链接 https://movie.douban.com/subject/25857966/
◎片  长 108分钟
◎导  演 杨磊 Lei Yang
◎主  演 王大陆 Darren Wang
张天爱 Tian'ai Zhang
任达华 Simon Yam
盛冠森 Guansen Sheng
王迅 Xun Wang
赵健 Jian Zhao
刘俊孝 Dean Liu
释彦能 Xingyu Shi
胡兵 Hu Bing
何穗 Sui He
蒋璐霞 Luxia Jiang
杜奕衡 John Do
周一围 Yiwei Zhou

◎简  介

故事发生在九州,一个聪明的贼(王大陆 饰)、一个尽职的捕快(张天爱 饰)和一个单纯的王子(盛冠森 饰),一次偶然的相遇。三个人有着各自不同的目的,互相不信任,却不得不共同进入一段奇特的旅行。在旅行中,三个人都从对方的身上找到了友谊和爱,最终阻止一次毁灭世界的阴谋。





 MediaInfo
Video
ID                                       : 1
Format                                   : AVC
Format/Info                              : Advanced Video Codec
Format profile                           : High@L4.1
Format settings                          : CABAC / 4 Ref Frames
Format settings, CABAC                   : Yes
Format settings, ReFrames                : 4 frames
Codec ID                                 : V_MPEG4/ISO/AVC
Duration                                 : 1 h 47 min
Bit rate mode                            : Variable
Bit rate                                 : 22.8 Mb/s
Maximum bit rate                         : 30.0 Mb/s
Width                                    : 1 920 pixels
Height                                   : 1 080 pixels
Display aspect ratio                     : 16:9
Frame rate mode                          : Constant
Frame rate                               : 24.000 FPS
Color space                              : YUV
Chroma subsampling                       : 4:2:0
Bit depth                                : 8 bits
Scan type                                : Progressive
Bits/(Pixel*Frame)                       : 0.459
Stream size                              : 17.2 GiB (84%)
Title                                    : Legend.of.the.Naga.Pearls.2017.CHINESE.1080p.BluRay.REMUX.AVC.DTS-HD.MA.5.1-FGT
Language                                 : English
Default                                  : No
Forced                                   : No

Audio #1
ID                                       : 2
Format                                   : DTS
Format/Info                              : Digital Theater Systems
Format profile                           : MA / Core
Codec ID                                 : A_DTS
Duration                                 : 1 h 47 min
Bit rate mode                            : Variable / Constant
Bit rate                                 : 2 410 kb/s / 1 509 kb/s
Channel(s)                               : 6 channels
Channel positions                        : Front: L C R, Side: L R, LFE
Sampling rate                            : 48.0 kHz
Frame rate                               : 93.750 FPS (512 SPF)
Bit depth                                : 16 bits
Compression mode                         : Lossless / Lossy
Delay relative to video                  : 2 s 208 ms
Stream size                              : 1.81 GiB (9%)
Title                                    : Legend.of.the.Naga.Pearls.2017.CHINESE.1080p.BluRay.REMUX.AVC.DTS-HD.MA.5.1-FGT
Language                                 : Chinese
Default                                  : Yes
Forced                                   : No

Audio #2
ID                                       : 3
Format                                   : DTS
Format/Info                              : Digital Theater Systems
Codec ID                                 : A_DTS
Duration                                 : 1 h 47 min
Bit rate mode                            : Constant
Bit rate                                 : 1 509 kb/s
Channel(s)                               : 6 channels
Channel positions                        : Front: L C R, Side: L R, LFE
Sampling rate                            : 48.0 kHz
Frame rate                               : 93.750 FPS (512 SPF)
Bit depth                                : 16 bits
Compression mode                         : Lossy
Delay relative to video                  : 2 s 208 ms
Stream size                              : 1.14 GiB (6%)
Title                                    : Legend.of.the.Naga.Pearls.2017.CHINESE.1080p.BluRay.REMUX.AVC.DTS-HD.MA.5.1-FGT
Language                                 : Chinese
Default                                  : No
Forced                                   : No

Audio #3
ID                                       : 4
Format                                   : AC-3
Format/Info                              : Audio Coding 3
Codec ID                                 : A_AC3
Duration                                 : 1 h 47 min
Bit rate mode                            : Constant
Bit rate                                 : 384 kb/s
Channel(s)                               : 2 channels
Channel positions                        : Front: L R
Sampling rate                            : 48.0 kHz
Frame rate                               : 31.250 FPS (1536 SPF)
Bit depth                                : 16 bits
Compression mode                         : Lossy
Delay relative to video                  : 2 s 208 ms
Stream size                              : 296 MiB (1%)
Title                                    : Legend.of.the.Naga.Pearls.2017.CHINESE.1080p.BluRay.REMUX.AVC.DTS-HD.MA.5.1-FGT
Language                                 : Chinese
Service kind                             : Complete Main
Default                                  : No
Forced                                   : No

Text #1
ID                                       : 5
Format                                   : PGS
Muxing mode                              : zlib
Codec ID                                 : S_HDMV/PGS
Codec ID/Info                            : Picture based subtitle format used on BDs/HD-DVDs
Duration                                 : 1 h 43 min
Bit rate                                 : 24.1 kb/s
Count of elements                        : 2540
Stream size                              : 17.8 MiB (0%)
Title                                    : English-PGS
Language                                 : English
Default                                  : Yes
Forced                                   : Yes

Text #2
ID                                       : 6
Format                                   : PGS
Muxing mode                              : zlib
Codec ID                                 : S_HDMV/PGS
Codec ID/Info                            : Picture based subtitle format used on BDs/HD-DVDs
Duration                                 : 1 h 43 min
Bit rate                                 : 23.6 kb/s
Count of elements                        : 2540
Stream size                              : 17.4 MiB (0%)
Title                                    : Chinese-PGS
Language                                 : Chinese
Default                                  : No
Forced                                   : No

Menu
00:00:00.000                             : en:Chapter 01
00:08:21.916                             : en:Chapter 02
00:15:04.875                             : en:Chapter 03
00:21:50.791                             : en:Chapter 04
00:29:34.375                             : en:Chapter 05
00:37:49.708                             : en:Chapter 06
00:46:36.333                             : en:Chapter 07
00:53:35.666                             : en:Chapter 08
00:58:02.750                             : en:Chapter 09
01:05:12.458                             : en:Chapter 10
01:13:37.291                             : en:Chapter 11
01:22:36.666                             : en:Chapter 12
01:35:03.083                             : en:Chapter 13
01:43:17.791                             : en:Chapter 14
鲛珠传Legend.of.the.Naga.Pearls.2017.CHINESE.1080p.BluRay.REMUX.AVC.DTS-HD.MA.5.1-FGT 20.47G.torrent
 

lly1971
风云使者
风云使者
  • 注册日期2015-08-06
  • 发帖数4430
  • 影币4721枚
  • 魔力值1880点
  • 蓝光币555克拉
  • 社区居民
  • 最爱沙发
  • 忠实会员
沙发#
发布于:2018-02-17 23:34
感谢感谢!
liguochuan
精灵王
精灵王
  • 注册日期2015-10-03
  • 发帖数748
  • 影币2940枚
  • 魔力值1767点
  • 蓝光币19克拉
  • 社区居民
  • 忠实会员
板凳#
发布于:2018-02-18 21:03
不错的片子
游客
返回顶部