sww
sww
论坛版主
论坛版主
  • 注册日期2015-12-13
  • 发帖数1519
  • 影币34437枚
  • 魔力值1968点
  • 蓝光币81克拉
  • 社区居民
  • 最爱沙发
  • 忠实会员
  • 喜欢达人
  • 原创写手
阅读:577回复:4

[动作][4K]赤焰战场2 RED.2.2013.2160p.BluRay.REMUX.HEVC.DTS-HD.MA.TrueHD.7.1.Atmos-FGT 蓝光电影 Remux 动作 / 喜剧 / 惊悚 / 犯罪 74.41 GB

楼主#
更多 发布于:2018-01-16 14:25


◎译  名 赤焰战场2/猛火爆2(港)/超危险特工2:狠战(台)/夕阳红别动队2/红色危机2
◎片  名 Red 2
◎年  代 2013
◎产  地 美国/法国/加拿大
◎类  别 喜剧/动作/犯罪
◎语  言 英语/俄语/法语
◎上映日期 2013-07-19(美国)/2013-11-15(中国大陆)
◎IMDb评分  6.7/10 from 138,664 users
◎IMDb链接  http://www.imdb.com/title/tt1821694/
◎豆瓣评分 7.1/10 from 47,689 users
◎豆瓣链接 https://movie.douban.com/subject/7916027/
◎片  长 116分钟
◎导  演 迪恩·帕里索特 Dean Parisot
◎主  演 布鲁斯·威利斯 Bruce Willis
玛丽·露易斯·帕克 Mary-Louise Parker
凯瑟琳·泽塔-琼斯 Catherine Zeta-Jones
海伦·米伦 Helen Mirren
安东尼·霍普金斯 Anthony Hopkins
约翰·马尔科维奇 John Malkovich
李秉宪 Byeng-hun Lee
大卫·休里斯 David Thewlis
尼尔·麦克唐纳 Neal McDonough
提图斯·维里沃 Titus Welliver
加里克·哈根 Garrick Hagon
蒂姆·皮戈特-史密斯 Tim Pigott-Smith
布莱恩·考克斯 Brian Cox
菲利普·阿迪提 Philip Arditti
米切尔·马伦 Mitchell Mullen

◎简  介

前中情局特工弗兰克·摩西(布鲁斯·威利斯 Bruce Willis 饰)退休后远离杀戮战场,无比享受与莎拉(玛丽·露易斯·帕克 Mary-Louise Parker 饰)为伴的悠闲岁月。某天他毫无征兆地目击了老搭档马文·博格斯(约翰·马尔科维奇 John Malkovich 饰)惨死的一幕,自己也成为下一个被追杀的目标。一切源于冷战时代的龙葵之光计划,美国政府为了防止该计划流传网络,因此急于抹杀知情者弗兰克和马文。马文死而复生,救出被困的弗兰克,二人带着莎拉一路逃亡,寻找龙葵之光的关键人物。与此同时,维多利亚(海伦·米伦 Helen Mirren 饰)被英国军情六处命令追杀弗兰克等人,而曾和弗兰克有过交集的世界顶尖杀手韩朝培(李秉宪 饰)也受雇于美国政府尾随前来。久违的搏杀再起……
本片根据华伦·埃利斯(Warren Ellis)和库里·汉默(Cully Hamner)的漫画改编。
Screens:

MediaInfo
Video #1
ID                                       : 1
Format                                   : HEVC
Format/Info                              : High Efficiency Video Coding
Format profile                           : Main 10@L5.1@High
Codec ID                                 : V_MPEGH/ISO/HEVC
Duration                                 : 1 h 55 min
Bit rate                                 : 73.4 Mb/s
Width                                    : 3 840 pixels
Height                                   : 2 160 pixels
Display aspect ratio                     : 16:9
Frame rate mode                          : Constant
Frame rate                               : 23.976 (24000/1001) FPS
Color space                              : YUV
Chroma subsampling                       : 4:2:0 (Type 2)
Bit depth                                : 10 bits
Bits/(Pixel*Frame)                       : 0.369
Stream size                              : 59.4 GiB (80%)
Title                                    : RED.2.2013.2160p.BluRay.REMUX.HEVC.DTS-HD.MA.TrueHD.7.1.Atmos-FGT
Default                                  : Yes
Forced                                   : No
Color range                              : Limited
Color primaries                          : BT.2020
Transfer characteristics                 : PQ
Matrix coefficients                      : BT.2020 non-constant
Mastering display color primaries        : Display P3
Mastering display luminance              : min: 0.0050 cd/m2, max: 1000 cd/m2
Maximum Content Light Level              : 1000 cd/m2
Maximum Frame-Average Light Level        : 412 cd/m2

Video #2
ID                                       : 2
Format                                   : HEVC
Format/Info                              : High Efficiency Video Coding
Format profile                           : Main 10@L5.1@High
Codec ID                                 : V_MPEGH/ISO/HEVC
Duration                                 : 1 h 55 min
Bit rate                                 : 7 607 kb/s
Width                                    : 1 920 pixels
Height                                   : 1 080 pixels
Display aspect ratio                     : 16:9
Frame rate mode                          : Constant
Frame rate                               : 23.976 (24000/1001) FPS
Color space                              : YUV
Chroma subsampling                       : 4:2:0 (Type 2)
Bit depth                                : 10 bits
Bits/(Pixel*Frame)                       : 0.153
Stream size                              : 6.15 GiB (8%)
Title                                    : RED.2.2013.2160p.BluRay.REMUX.HEVC.DTS-HD.MA.TrueHD.7.1.Atmos-FGT
Default                                  : No
Forced                                   : No
Color range                              : Limited
Color primaries                          : BT.2020
Transfer characteristics                 : PQ
Matrix coefficients                      : BT.2020 non-constant
Mastering display color primaries        : Display P3
Mastering display luminance              : min: 0.0050 cd/m2, max: 1000 cd/m2

Audio #1
ID                                       : 3
Format                                   : TrueHD
Format profile                           : TrueHD+Atmos / TrueHD
Codec ID                                 : A_TRUEHD
Duration                                 : 1 h 55 min
Bit rate mode                            : Variable
Bit rate                                 : 4 607 kb/s
Maximum bit rate                         : 8 913 kb/s
Channel(s)                               : Object Based / 8 channels
Channel positions                        : Object Based / Front: L C R, Side: L R, Back: L R, LFE
Sampling rate                            :  / 48.0 kHz
Frame rate                               : 1 200.000 FPS (40 SPF)
Compression mode                         : Lossless
Stream size                              : 3.73 GiB (5%)
Title                                    : RED.2.2013.2160p.BluRay.REMUX.HEVC.DTS-HD.MA.TrueHD.7.1.Atmos-FGT
Language                                 : English
Default                                  : Yes
Forced                                   : No

Audio #2
ID                                       : 4
Format                                   : DTS
Format/Info                              : Digital Theater Systems
Format profile                           : MA / Core
Codec ID                                 : A_DTS
Duration                                 : 1 h 55 min
Bit rate mode                            : Variable / Constant
Bit rate                                 : 3 840 kb/s / 1 509 kb/s
Channel(s)                               : 8 channels / 6 channels
Channel positions                        : Front: L C R, Side: L R, Back: L R, LFE / Front: L C R, Side: L R, LFE
Sampling rate                            : 48.0 kHz
Frame rate                               : 93.750 FPS (512 SPF)
Bit depth                                : 24 bits
Compression mode                         : Lossless / Lossy
Stream size                              : 3.17 GiB (4%)
Title                                    : RED.2.2013.2160p.BluRay.REMUX.HEVC.DTS-HD.MA.TrueHD.7.1.Atmos-FGT
Language                                 : English
Default                                  : No
Forced                                   : No

Audio #3
ID                                       : 5
Format                                   : AC-3
Format/Info                              : Audio Coding 3
Codec ID                                 : A_AC3
Duration                                 : 1 h 55 min
Bit rate mode                            : Constant
Bit rate                                 : 640 kb/s
Channel(s)                               : 6 channels
Channel positions                        : Front: L C R, Side: L R, LFE
Sampling rate                            : 48.0 kHz
Frame rate                               : 31.250 FPS (1536 SPF)
Bit depth                                : 16 bits
Compression mode                         : Lossy
Stream size                              : 530 MiB (1%)
Title                                    : RED.2.2013.2160p.BluRay.REMUX.HEVC.DTS-HD.MA.TrueHD.7.1.Atmos-FGT
Language                                 : English
Service kind                             : Complete Main
Default                                  : No
Forced                                   : No

Audio #4
ID                                       : 6
Format                                   : AC-3
Format/Info                              : Audio Coding 3
Codec ID                                 : A_AC3
Duration                                 : 1 h 55 min
Bit rate mode                            : Constant
Bit rate                                 : 192 kb/s
Channel(s)                               : 2 channels
Channel positions                        : Front: L R
Sampling rate                            : 48.0 kHz
Frame rate                               : 31.250 FPS (1536 SPF)
Bit depth                                : 16 bits
Compression mode                         : Lossy
Stream size                              : 159 MiB (0%)
Title                                    : RED.2.2013.2160p.BluRay.REMUX.HEVC.DTS-HD.MA.TrueHD.7.1.Atmos-FGT
Language                                 : English
Service kind                             : Complete Main
Default                                  : No
Forced                                   : No

Audio #5
ID                                       : 7
Format                                   : AC-3
Format/Info                              : Audio Coding 3
Codec ID                                 : A_AC3
Duration                                 : 1 h 55 min
Bit rate mode                            : Constant
Bit rate                                 : 640 kb/s
Channel(s)                               : 6 channels
Channel positions                        : Front: L C R, Side: L R, LFE
Sampling rate                            : 48.0 kHz
Frame rate                               : 31.250 FPS (1536 SPF)
Bit depth                                : 16 bits
Compression mode                         : Lossy
Stream size                              : 530 MiB (1%)
Title                                    : RED.2.2013.2160p.BluRay.REMUX.HEVC.DTS-HD.MA.TrueHD.7.1.Atmos-FGT
Language                                 : Spanish
Service kind                             : Complete Main
Default                                  : No
Forced                                   : No

Audio #6
ID                                       : 8
Format                                   : AC-3
Format/Info                              : Audio Coding 3
Codec ID                                 : A_AC3
Duration                                 : 1 h 55 min
Bit rate mode                            : Constant
Bit rate                                 : 640 kb/s
Channel(s)                               : 6 channels
Channel positions                        : Front: L C R, Side: L R, LFE
Sampling rate                            : 48.0 kHz
Frame rate                               : 31.250 FPS (1536 SPF)
Bit depth                                : 16 bits
Compression mode                         : Lossy
Stream size                              : 530 MiB (1%)
Title                                    : RED.2.2013.2160p.BluRay.REMUX.HEVC.DTS-HD.MA.TrueHD.7.1.Atmos-FGT
Language                                 : French
Service kind                             : Complete Main
Default                                  : No
Forced                                   : No

Audio #7
ID                                       : 9
Format                                   : AC-3
Format/Info                              : Audio Coding 3
Codec ID                                 : A_AC3
Duration                                 : 1 h 55 min
Bit rate mode                            : Constant
Bit rate                                 : 192 kb/s
Channel(s)                               : 2 channels
Channel positions                        : Front: L R
Sampling rate                            : 48.0 kHz
Frame rate                               : 31.250 FPS (1536 SPF)
Bit depth                                : 16 bits
Compression mode                         : Lossy
Stream size                              : 159 MiB (0%)
Title                                    : RED.2.2013.2160p.BluRay.REMUX.HEVC.DTS-HD.MA.TrueHD.7.1.Atmos-FGT
Language                                 : English
Service kind                             : Complete Main
Default                                  : No
Forced                                   : No

Text #1
ID                                       : 10
Format                                   : PGS
Muxing mode                              : zlib
Codec ID                                 : S_HDMV/PGS
Codec ID/Info                            : Picture based subtitle format used on BDs/HD-DVDs
Duration                                 : 1 h 45 min
Bit rate                                 : 33.6 kb/s
Count of elements                        : 3073
Stream size                              : 25.4 MiB (0%)
Title                                    : English-PGS
Language                                 : English
Default                                  : Yes
Forced                                   : No

Text #2
ID                                       : 11
Format                                   : PGS
Muxing mode                              : zlib
Codec ID                                 : S_HDMV/PGS
Codec ID/Info                            : Picture based subtitle format used on BDs/HD-DVDs
Duration                                 : 1 h 54 min
Bit rate                                 : 35.2 kb/s
Count of elements                        : 3425
Stream size                              : 28.8 MiB (0%)
Title                                    : English-SDH-PGS
Language                                 : English
Default                                  : No
Forced                                   : No

Text #3
ID                                       : 12
Format                                   : PGS
Muxing mode                              : zlib
Codec ID                                 : S_HDMV/PGS
Codec ID/Info                            : Picture based subtitle format used on BDs/HD-DVDs
Duration                                 : 1 h 45 min
Bit rate                                 : 31.9 kb/s
Count of elements                        : 2846
Stream size                              : 24.1 MiB (0%)
Title                                    : Spanish-PGS
Language                                 : Spanish
Default                                  : No
Forced                                   : No

Text #4
ID                                       : 13
Format                                   : PGS
Muxing mode                              : zlib
Codec ID                                 : S_HDMV/PGS
Codec ID/Info                            : Picture based subtitle format used on BDs/HD-DVDs
Duration                                 : 1 h 23 min
Bit rate                                 : 1 081 b/s
Count of elements                        : 52
Stream size                              : 658 KiB (0%)
Title                                    : French-PGS
Language                                 : French
Default                                  : No
Forced                                   : No

Menu
00:00:00.000                             : en:Chapter 1
00:08:17.622                             : en:Chapter 2
00:16:14.098                             : en:Chapter 3
00:22:40.150                             : en:Chapter 4
00:28:19.989                             : en:Chapter 5
00:35:19.158                             : en:Chapter 6
00:45:10.958                             : en:Chapter 7
00:51:15.363                             : en:Chapter 8
01:00:08.062                             : en:Chapter 9
01:07:33.299                             : en:Chapter 10
01:16:31.628                             : en:Chapter 11
01:23:02.560                             : en:Chapter 12
01:28:10.285                             : en:Chapter 13
01:33:26.684                             : en:Chapter 14
01:38:22.813                             : en:Chapter 15
01:44:43.735                             : en:Chapter 16
赤焰战场2 RED.2.2013.2160p.BluRay.REMUX.HEVC.DTS-HD.MA.TrueHD.7.1.Atmos-FGT 74.41G.torrent

最新喜欢:

gongzai906gongza...
emmading
风云使者
风云使者
  • 注册日期2015-08-06
  • 发帖数4074
  • 影币4362枚
  • 魔力值1847点
  • 蓝光币480克拉
  • 社区居民
  • 最爱沙发
  • 忠实会员
沙发#
发布于:2018-01-16 14:39
感谢感谢
bravery
精灵王
精灵王
  • 注册日期2016-12-08
  • 发帖数399
  • 影币180枚
  • 魔力值888点
  • 蓝光币29克拉
  • 社区居民
板凳#
发布于:2018-02-02 08:17
太好了,非常感谢!
lampc123
精灵王
精灵王
  • 注册日期2016-11-30
  • 发帖数393
  • 影币15枚
  • 魔力值1237点
  • 蓝光币0克拉
  • 忠实会员
地板#
发布于:2018-03-16 16:34
感谢楼主分享!
wwer
新手
新手
  • 注册日期2017-11-07
  • 发帖数6
  • 影币2枚
  • 魔力值54点
  • 蓝光币0克拉
  • 社区居民
4楼#
发布于:2018-07-08 19:20
顶顶顶顶顶顶顶顶顶顶顶
游客
返回顶部