sww
sww
论坛版主
论坛版主
  • 注册日期2015-12-13
  • 发帖数1316
  • 影币27254枚
  • 魔力值1432点
  • 蓝光币80克拉
  • 社区居民
  • 最爱沙发
  • 忠实会员
  • 喜欢达人
  • 原创写手
阅读:259回复:6

[动作][4K]谍影重重5 Jason.Bourne.2016.2160p.BluRay.REMUX.HEVC.DTS-X.7.1-FGT 蓝光电影 Remux 动作 / 悬疑 / 惊悚 57.78 GB

楼主#
更多 发布于:2017-11-21 15:56



【译  名】谍影重重5/叛谍追击5:身份重启(港)/ 神鬼认证:杰森包恩(台)
【片  名】Jason Bourne
【年  代】2016
【國  家】美国
【语  言】英语
【類  別】动作|惊悚
【IMDB評語】6.9/10 from 84170 users
【IMDB鏈接】http://www.imdb.com/title/tt4196776/
【導  演】保罗•格林格拉斯 Paul Greengrass
【主  演】

马特•达蒙Matt Damon ….杰森•伯恩Jason Bourne
艾丽西亚•维坎德Alicia Vikander ….海瑟•李Heather Lee
朱丽娅•斯蒂尔斯Julia Stiles ….尼基•帕森斯Nicky Parsons
汤米•李•琼斯Tommy Lee Jones ….罗伯特•杜威CIA Director Robert Dewey
文森•卡索Vincent Cassel ….埃塞特Asset
里兹•阿迈德Riz Ahmed ….Aaron Kalloor
阿托•艾桑多Ato Essandoh ….Craig Jeffers
Neve Gachev   ….CIA Agent (uncredited)
Bill Camp ….Malcolm Smith

【簡  介】

影片故事发生在后斯诺登时代,中情局系统被黑客入侵, 多项特工计划可能泄露。与此同时,中情局还发现了伯恩和好搭档尼基•帕森斯的踪迹。年轻的网络专家海瑟•李自告奋勇追踪伯恩,而伯恩也在寻找着关于自己身世的惊天黑幕。中情局高官杜威是知晓一切幕后秘密的人,他、海瑟•李和伯恩之间的角力让影片充满悬念,不到最后一刻,就无法了解真正的结局。

【关于《谍影重重5》】

•马特•达蒙对伯恩的角色有着深厚感情。他表示在机场或者在大街上,很多影迷问他的第一个问题都是他是否会回归《谍影重重》系列。他表示自己不介意“被贴上杰森•伯恩的标签”“我喜欢杰森•伯恩”。

•《谍影重重3》(2007)年后马特•达蒙暂别杰森•伯恩这个角色,但他一直表示,只要导演保罗•格林格拉斯愿意回归,他也义不容辞地回归。9年之后,二人果然实现了再次合作的诺言。

•对于是个9年之后回归《谍影重重》,导演保罗•格林格拉斯信心很足,他表示自己“百分之一千的投入”,而且“如果不是确定这部续集会超越整个系列的其他部作品,我是不会开始的。”

•前四部《谍影重重》电影中,托尼•吉尔罗伊均为编剧之一,但他没有参与本片的剧本创作。

•影片一部分情节发生在希腊雅典,剧组打算到实地拍摄,但由于当地的高税收和官僚主义等重重问题,制片人最终放弃了。片中希腊戏份实际是在特内里费岛(属于西班牙加那利群岛)拍摄的。

•片名直接取主人公的姓名《杰森•伯恩》,第一次打破了以往的命名惯例(分别是The Bourne Identity 2002、The Bourne Supremacy 2004、The Bourne Ultimatum 2007和The Bourne Legacy2012)。

•杰里米•雷纳版《谍影重重》的续集原定于2016年7月上映。然而马特•达蒙与保罗•格林和拉斯同意回归《谍影重重5》之后,雷纳版的拍摄日程被后延,预计将于2018或者2020年与观众见面。

•2008年推出的电脑游戏版《伯恩的身份》邀请马特•达蒙配音,但遭到了拒绝。理由是达蒙认为游戏版过于暴力。

•女主角艾丽西亚•维坎德在本片之前已经出演过一部间谍动作片,那就是由盖•里奇执导的《秘密特工》2015。





MediaInfo
Video
ID                                       : 1
Format                                   : HEVC
Format/Info                              : High Efficiency Video Coding
Format profile                           : Main 10@L5.1@High
Codec ID                                 : V_MPEGH/ISO/HEVC
Duration                                 : 2 h 3 min
Bit rate                                 : 56.5 Mb/s
Width                                    : 3 840 pixels
Height                                   : 2 160 pixels
Display aspect ratio                     : 16:9
Frame rate mode                          : Constant
Frame rate                               : 23.976 (24000/1001) FPS
Color space                              : YUV
Chroma subsampling                       : 4:2:0 (Type 2)
Bit depth                                : 10 bits
Bits/(Pixel*Frame)                       : 0.284
Stream size                              : 48.6 GiB (84%)
Title                                    : Jason.Bourne.2016.2160p.BluRay.REMUX.HEVC.DTS-X.7.1-FGT
Writing library                          : ATEME Titan KFE 3.7.3 (4.7.3.1003)
Default                                  : Yes
Forced                                   : No
Color range                              : Limited
Color primaries                          : BT.2020
Transfer characteristics                 : PQ
Matrix coefficients                      : BT.2020 non-constant
Mastering display color primaries        : R: x=0.680000 y=0.320000, G: x=0.265000 y=0.690000, B: x=0.150000 y=0.060000, White point: x=0.312700 y=0.329000
Mastering display luminance              : min: 0.0050 cd/m2, max: 1000.0000 cd/m2
Maximum Content Light Level              : 960 cd/m2
Maximum Frame-Average Light Level        : 105 cd/m2

Audio #1
ID                                       : 2
Format                                   : DTS
Format/Info                              : Digital Theater Systems
Format profile                           : X / MA / Core
Codec ID                                 : A_DTS
Duration                                 : 2 h 3 min
Bit rate mode                            : Variable / Variable / Constant
Bit rate                                 : 7 515 kb/s / 7 515 kb/s / 1 509 kb/s
Channel(s)                               : Object Based / 8 channels / 6 channels
Channel positions                        : Object Based / Front: L C R, Side: L R, Back: L R, LFE / Front: L C R, Side: L R, LFE
Sampling rate                            :  / 48.0 kHz / 48.0 kHz
Frame rate                               : 93.750 FPS (512 SPF)
Bit depth                                :  / 24 bits / 24 bits
Compression mode                         :  / Lossless / Lossy
Stream size                              : 6.47 GiB (11%)
Title                                    : Jason.Bourne.2016.2160p.BluRay.REMUX.HEVC.DTS-X.7.1-FGT
Language                                 : English
Default                                  : Yes
Forced                                   : No

Audio #2
ID                                       : 3
Format                                   : DTS
Format/Info                              : Digital Theater Systems
Codec ID                                 : A_DTS
Duration                                 : 2 h 3 min
Bit rate mode                            : Constant
Bit rate                                 : 255 kb/s
Channel(s)                               : 2 channels
Channel positions                        : Front: L R
Sampling rate                            : 48.0 kHz
Frame rate                               : 93.750 FPS (512 SPF)
Bit depth                                : 24 bits
Compression mode                         : Lossy
Stream size                              : 225 MiB (0%)
Title                                    : Jason.Bourne.2016.2160p.BluRay.REMUX.HEVC.DTS-X.7.1-FGT
Language                                 : English
Default                                  : No
Forced                                   : No

Audio #3
ID                                       : 4
Format                                   : DTS
Format/Info                              : Digital Theater Systems
Format profile                           : HRA / Core
Codec ID                                 : A_DTS
Duration                                 : 2 h 3 min
Bit rate mode                            : Constant
Bit rate                                 : 2 046 kb/s / 1 509 kb/s
Channel(s)                               : 8 channels / 6 channels
Channel positions                        : Front: L C R, Side: L R, Back: L R, LFE / Front: L C R, Side: L R, LFE
Sampling rate                            : 48.0 kHz
Frame rate                               : 93.750 FPS (512 SPF)
Bit depth                                : 24 bits
Compression mode                         : Lossy
Stream size                              : 1.76 GiB (3%)
Title                                    : Jason.Bourne.2016.2160p.BluRay.REMUX.HEVC.DTS-X.7.1-FGT
Language                                 : Spanish
Default                                  : No
Forced                                   : No

Audio #4
ID                                       : 5
Format                                   : DTS
Format/Info                              : Digital Theater Systems
Codec ID                                 : A_DTS
Duration                                 : 2 h 3 min
Bit rate mode                            : Constant
Bit rate                                 : 768 kb/s
Channel(s)                               : 6 channels
Channel positions                        : Front: L C R, Side: L R, LFE
Sampling rate                            : 48.0 kHz
Frame rate                               : 93.750 FPS (512 SPF)
Bit depth                                : 24 bits
Compression mode                         : Lossy
Stream size                              : 677 MiB (1%)
Title                                    : Jason.Bourne.2016.2160p.BluRay.REMUX.HEVC.DTS-X.7.1-FGT
Language                                 : French
Default                                  : No
Forced                                   : No

Text #1
ID                                       : 6
Format                                   : PGS
Muxing mode                              : zlib
Codec ID                                 : S_HDMV/PGS
Codec ID/Info                            : Picture based subtitle format used on BDs/HD-DVDs
Duration                                 : 1 h 53 min
Bit rate                                 : 29.1 kb/s
Count of elements                        : 2488
Stream size                              : 23.5 MiB (0%)
Title                                    : English-PGS
Language                                 : English
Default                                  : Yes
Forced                                   : No

Text #2
ID                                       : 7
Format                                   : PGS
Muxing mode                              : zlib
Codec ID                                 : S_HDMV/PGS
Codec ID/Info                            : Picture based subtitle format used on BDs/HD-DVDs
Duration                                 : 2 h 2 min
Bit rate                                 : 24.4 kb/s
Count of elements                        : 2260
Stream size                              : 21.4 MiB (0%)
Title                                    : Spanish-PGS
Language                                 : Spanish
Default                                  : No
Forced                                   : No

Text #3
ID                                       : 8
Format                                   : PGS
Muxing mode                              : zlib
Codec ID                                 : S_HDMV/PGS
Codec ID/Info                            : Picture based subtitle format used on BDs/HD-DVDs
Duration                                 : 2 h 2 min
Bit rate                                 : 25.0 kb/s
Count of elements                        : 2240
Stream size                              : 21.9 MiB (0%)
Title                                    : French-PGS
Language                                 : French
Default                                  : No
Forced                                   : No

Text #4
ID                                       : 9
Format                                   : PGS
Muxing mode                              : zlib
Codec ID                                 : S_HDMV/PGS
Codec ID/Info                            : Picture based subtitle format used on BDs/HD-DVDs
Duration                                 : 2 h 0 min
Bit rate                                 : 932 b/s
Count of elements                        : 88
Stream size                              : 824 KiB (0%)
Title                                    : Spanish-FORCED-PGS
Language                                 : Spanish
Default                                  : No
Forced                                   : No

Text #5
ID                                       : 10
Format                                   : PGS
Muxing mode                              : zlib
Codec ID                                 : S_HDMV/PGS
Codec ID/Info                            : Picture based subtitle format used on BDs/HD-DVDs
Duration                                 : 2 h 0 min
Bit rate                                 : 1 925 b/s
Count of elements                        : 150
Stream size                              : 1.66 MiB (0%)
Title                                    : French-FORCED-PGS
Language                                 : French
Default                                  : No
Forced                                   : No

Menu
00:00:00.000                             : en:Chapter 1
00:04:04.661                             : en:Chapter 2
00:08:21.542                             : en:Chapter 3
00:13:32.686                             : en:Chapter 4
00:18:28.315                             : en:Chapter 5
00:24:07.237                             : en:Chapter 6
00:29:21.259                             : en:Chapter 7
00:36:15.548                             : en:Chapter 8
00:42:20.663                             : en:Chapter 9
00:48:22.441                             : en:Chapter 10
00:55:12.183                             : en:Chapter 11
01:01:09.666                             : en:Chapter 12
01:08:32.483                             : en:Chapter 13
01:16:23.328                             : en:Chapter 14
01:24:45.330                             : en:Chapter 15
01:29:06.549                             : en:Chapter 16
01:37:52.908                             : en:Chapter 17
01:44:26.343                             : en:Chapter 18
01:48:03.727                             : en:Chapter 19
01:54:01.209                             : en:Chapter 20
谍影重重5 Jason.Bourne.2016.2160p.BluRay.REMUX.HEVC.DTS-X.7.1-FGT 57.78G.torrent
maveandy
精灵王
精灵王
  • 注册日期2015-10-04
  • 发帖数592
  • 影币1823枚
  • 魔力值1328点
  • 蓝光币256克拉
  • 社区居民
  • 忠实会员
沙发#
发布于:2017-11-21 20:50
感谢楼主的分享
kingliuk889
新手
新手
  • 注册日期2016-09-24
  • 发帖数10
  • 影币11枚
  • 魔力值50点
  • 蓝光币0克拉
板凳#
发布于:2017-11-22 18:06
信息费想信息费想
xj420218
新手
新手
  • 注册日期2017-04-10
  • 发帖数36
  • 影币19枚
  • 魔力值48点
  • 蓝光币2克拉
地板#
发布于:2017-11-23 19:35
电影文件真实大呀,下来看看
yy1763
新手
新手
  • 注册日期2016-11-18
  • 发帖数36
  • 影币14枚
  • 魔力值42点
  • 蓝光币18克拉
4楼#
发布于:2017-11-24 16:52
原来的1080还要不要呢真是个问题
jiakodx
贫民
贫民
  • 注册日期2017-11-29
  • 发帖数5
  • 影币5枚
  • 魔力值2点
  • 蓝光币0克拉
5楼#
发布于:2017-11-29 21:13
[真实]13岁小少年艹25岁大姐姐使用DV录象尖叫淫淫!


我是少年我怕谁 缓缓的把滚烫巨根插入大姐姐的肉穴!






马上进入:[真实]13岁小少年艹25岁大姐姐使用DV录象尖叫淫淫!



======图片回复可見======
zmr
zmr
新手
新手
  • 注册日期2017-03-04
  • 发帖数16
  • 影币24枚
  • 魔力值46点
  • 蓝光币0克拉
  • 社区居民
6楼#
发布于:2017-11-30 17:46
什么东东,可以这样
游客
返回顶部