gananicus
管理员
管理员
  • 注册日期2015-07-28
  • 发帖数733
  • 影币21834枚
  • 魔力值689点
  • 蓝光币1克拉
  • 社区居民
阅读:749回复:12

[动画]名侦探柯南:唐红的恋歌/名侦探柯南21: 唐紅的恋歌(台)/名侦探柯南:剧场版21/名侦探柯南:2017年剧场版【内封中字】Detective.Conan.The.Crimson.Love.Letter.2017.720p.BluRay.x264-WiKi 4.04GB

楼主#
更多 发布于:2017-11-12 13:47



◎译  名 名侦探柯南:唐红的恋歌/名侦探柯南21:
唐紅的恋歌(台)/名侦探柯南:剧场版21/名侦探柯南:2017年剧场版
◎片  名 名探偵コナン
から紅の恋歌
◎年  代 2017
◎产  地 日本
◎类  别 动画/悬疑
◎语  言 日语
◎上映日期 2017-04-15(日本)
◎IMDb评分  6.8/10
from 320 users
◎IMDb链接  http://www.imdb.com/title/tt5692622/
◎豆瓣评分 6.4/10 from
10,083 users
◎豆瓣链接 https://movie.douban.com/subject/26788667/
◎片  长 112分钟
◎导  演 静野孔文
Kobun Shizuno
◎主  演 高山南 Minami Takayama
 山崎和佳奈 Wakana
Yamazaki
 小山力也 Rikiya Koyama
 堀川亮 Ryô Horikawa
 宫村优子
Yûko Miyamura
 绪方贤一 Kenichi Ogata
 岩居由希子 Yukiko
Iwai
 高木渉 Takagi Wataru
 大谷育江 Ikue Ootani
 林原惠美 Megumi
Hayashibara
 宫川大辅 Daisuke Miyagawa
 吉冈里帆 Riho
Yoshioka
 雪野五月 Satsuki
Yukino

◎简  介

 舞台:大阪&京都,正在录制"皐月杯"百人一首记者会的大阪地标·日卖电视台突然发生爆炸,千钧一发之际,急忙赶来的柯南救出了被困在崩塌大楼中的平次与和叶,而另一侧,"皐月杯"冠军在京都屋内遭人杀害,监控器里所显示出的是——红叶...原作中的重要角色,百人一首高中生冠军,自称"平次未婚妻"的大冈红叶,将首次在剧场版中登场,新一和小兰的关系也将发生变化....


Video
ID  
                                     : 1
Format                            
      : AVC
Format/Info                              : Advanced Video
Codec
Format profile                           : High@L4.1
Format settings                      
   : CABAC / 9 Ref Frames
Format settings, CABAC                   :
Yes
Format settings, ReFrames                : 9 frames
Codec ID          
                      : V_MPEG4/ISO/AVC
Duration                            
    : 1 h 52 min
Bit rate                                 : 4 500
kb/s
Width                                    : 1 280 pixels
Height        
                           : 720 pixels
Display aspect ratio                
    : 16:9
Frame rate mode                          : Constant
Frame rate  
                             : 23.976 (24000/1001) FPS
Color space          
                   : YUV
Chroma subsampling                       :
4:2:0
Bit depth                                : 8 bits
Scan type        
                        : Progressive
Bits/(Pixel*Frame)                    
   : 0.204
Stream size                              : 3.45 GiB
(86%)
Writing library                          : x264 core 130 r2273
b3065e6
Encoding settings                        : cabac=1 / ref=9 /
deblock=1:-1:-1 / analyse=0x3:0x113 / me=umh / subme=11 / psy=1 /
psy_rd=1.00:0.00 / mixed_ref=1 / me_range=32 / chroma_me=1 / trellis=2 /
8x8dct=1 / cqm=0 / deadzone=21,11 / fast_pskip=0 / chroma_qp_offset=-4 /
threads=12 / lookahead_threads=2 / sliced_threads=0 / nr=0 / decimate=0 /
interlaced=0 / bluray_compat=0 / constrained_intra=0 / bframes=8 / b_pyramid=2 /
b_adapt=2 / b_bias=0 / direct=3 / weightb=1 / open_gop=0 / weightp=2 /
keyint=250 / keyint_min=23 / scenecut=40 / intra_refresh=0 / rc_lookahead=80 /
rc=2pass / mbtree=1 / bitrate=4500 / ratetol=1.0 / qcomp=0.60 / qpmin=0 /
qpmax=69 / qpstep=4 / cplxblur=20.0 / qblur=0.5 / ip_ratio=1.40 /
aq=1:0.50
Language                                 : English
Default    
                             : Yes
Forced                                   :
No

Audio
ID                                       : 2
Format        
                           : AC-3
Format/Info                              :
Audio Coding 3
Codec ID                                 : A_AC3
Duration  
                               : 1 h 52 min
Bit rate mode                    
        : Constant
Bit rate                                 : 640
kb/s
Channel(s)                               : 6 channels
Channel
positions                        : Front: L C R, Side: L R, LFE
Sampling
rate                            : 48.0 kHz
Frame rate                      
        : 31.250 FPS (1536 SPF)
Bit depth                                : 16
bits
Compression mode                         : Lossy
Stream size        
                      : 514 MiB (12%)
Title                                  
 : 日语
Language                                 : Japanese
Service kind    
                        : Complete Main
Default                            
     : Yes
Forced                                   : No

附件名称/大小 下载次数 最后更新
Detective.Conan.The.Crimson.Love.Letter.2017.720p.BluRay.x264-WiKi.torrent (82KB)  179 11-12 13:46
emmading
精灵王
精灵王
  • 注册日期2015-08-06
  • 发帖数3329
  • 影币3597枚
  • 魔力值1455点
  • 蓝光币31克拉
  • 社区居民
  • 最爱沙发
  • 忠实会员
沙发#
发布于:2017-11-12 16:16
感谢楼主分享
sygfhf
侠客
侠客
  • 注册日期2017-07-29
  • 发帖数28
  • 影币0枚
  • 魔力值192点
  • 蓝光币3克拉
  • 社区居民
  • 忠实会员
板凳#
发布于:2017-11-12 18:06
谢谢分享了
wuhuataocn
侠客
侠客
  • 注册日期2016-12-21
  • 发帖数69
  • 影币58枚
  • 魔力值120点
  • 蓝光币1克拉
  • 社区居民
地板#
发布于:2017-11-12 21:37
一年一次不能错过。
bangfn
禁止发言
禁止发言
  • 注册日期2017-11-13
  • 发帖数4
  • 影币4枚
  • 魔力值2点
  • 蓝光币0克拉
4楼#
发布于:2017-11-13 15:46
用户被禁言,该主题自动屏蔽!
flyingcat49
侠客
侠客
  • 注册日期2016-01-05
  • 发帖数84
  • 影币97枚
  • 魔力值78点
  • 蓝光币31克拉
  • 社区居民
5楼#
发布于:2017-11-14 07:58
终于又出新的一集了
maixue
禁止发言
禁止发言
  • 注册日期2017-11-14
  • 发帖数8
  • 影币16枚
  • 魔力值2点
  • 蓝光币0克拉
6楼#
发布于:2017-11-14 10:05
用户被禁言,该主题自动屏蔽!
simplesimon
精灵王
精灵王
  • 注册日期2015-08-10
  • 发帖数211
  • 影币4枚
  • 魔力值939点
  • 蓝光币7克拉
  • 社区居民
  • 忠实会员
7楼#
发布于:2017-11-14 20:20
很久没有看过柯南了·,谢谢·。
tiaofpo
禁止发言
禁止发言
  • 注册日期2017-11-16
  • 发帖数7
  • 影币7枚
  • 魔力值2点
  • 蓝光币0克拉
8楼#
发布于:2017-11-16 13:42
用户被禁言,该主题自动屏蔽!
longgan
新手
新手
  • 注册日期2017-09-14
  • 发帖数3
  • 影币0枚
  • 魔力值34点
  • 蓝光币0克拉
9楼#
发布于:2017-11-16 17:02
资源好的
Quainji
侠客
侠客
  • 注册日期2017-01-29
  • 发帖数33
  • 影币0枚
  • 魔力值165点
  • 蓝光币0克拉
10楼#
发布于:2017-11-17 14:12
感谢分享!!!!!!!!!!!
llstar
圣骑士
圣骑士
  • 注册日期2015-09-27
  • 发帖数203
  • 影币11枚
  • 魔力值524点
  • 蓝光币3克拉
11楼#
发布于:2017-11-18 14:30
谢谢分享
zxcv2222
圣骑士
圣骑士
  • 注册日期2016-09-18
  • 发帖数228
  • 影币1418枚
  • 魔力值754点
  • 蓝光币7克拉
  • 社区居民
  • 忠实会员
12楼#
发布于:2017-11-20 18:46
感谢楼主分享
游客
返回顶部