sww
sww
论坛版主
论坛版主
  • 注册日期2015-12-13
  • 发帖数1263
  • 影币25876枚
  • 魔力值1389点
  • 蓝光币80克拉
  • 社区居民
  • 最爱沙发
  • 忠实会员
  • 喜欢达人
  • 原创写手
阅读:259回复:4

[动画]抢劫坚果店2 The.Nut.Job.2.Nutty.by.Nature.2017.1080p.BluRay.REMUX.AVC.DTS-HD.MA.5.1-FGT 蓝光电影 Remux 冒险 / 喜剧 / 动画 25.44 GB

楼主#
更多 发布于:2017-11-11 09:58



◎译  名 抢劫坚果店2/坚果行动2(台)/古惑松鼠之饥饿任务2(港)/坚果计划2
◎片  名 The
Nut Job 2: Nutty by
Nature
◎年  代 2017
◎产  地 加拿大/韩国/美国
◎类  别 喜剧/动画/冒险
◎语  言 英语
◎上映日期 2017-08-11(加拿大/美国)
◎IMDb评分  4.6/10
from 1,148 users
◎IMDb链接  http://www.imdb.com/title/tt3486626/
◎豆瓣评分 7.5/10 from 53
users
◎豆瓣链接 https://movie.douban.com/subject/25817617/
◎片  长 91分钟
◎导  演 卡尔·布伦克尔
Cal Brunker
◎主  演 威尔·阿奈特 Will Arnett
 凯瑟琳·海格尔 Katherine
Heigl
 玛娅·鲁道夫 Maya Rudolph
 成龙 Jackie Chan
 伊莎贝拉·莫奈
Isabela Moner
 彼得·斯特曼 Peter Stormare
 鲍比·坎纳瓦尔 Bobby
Cannavale
 鲍比·莫尼汉 Bobby Moynihan
 杰夫·敦哈姆 Jeff
Dunham
 加布里埃尔·伊格莱西亚斯 Gabriel Iglesias
 塞巴斯蒂安·马尼斯科 Sebastian
Maniscalco
 汤姆·肯尼 Tom Kenny
 凯瑞·华格伦 Kari
Wahlgren
 罗伯特·丁克勒 Robert Tinkler
 朱莉·勒米厄 Julie
Lemieux

◎简  介

 动画片《抢劫坚果店2》北美定档2017年5月19日,一群小动物保护过冬粮食的故事将迎来2.0版。尽管2014年的《抢劫坚果店》口碑略扑街,但全球票房还是达到了1.2亿美元,创造了独立动画影片的全球票房纪录。前作配音威尔·阿奈特、凯瑟琳·海格尔等人将在续集中回归,看捣蛋鬼们如何抵御外敌、保护家园。








MediaInfo
Video
ID                                       : 1
Format                                   : AVC
Format/Info                              : Advanced Video Codec
Format profile                           : High@L4.1
Format settings                          : CABAC / 4 Ref Frames
Format settings, CABAC                   : Yes
Format settings, ReFrames                : 4 frames
Format settings, GOP                     : M=3, N=12
Codec ID                                 : V_MPEG4/ISO/AVC
Duration                                 : 1 h 31 min
Bit rate mode                            : Variable
Maximum bit rate                         : 38.0 Mb/s
Width                                    : 1 920 pixels
Height                                   : 1 080 pixels
Display aspect ratio                     : 16:9
Frame rate mode                          : Constant
Frame rate                               : 23.976 (24000/1001) FPS
Color space                              : YUV
Chroma subsampling                       : 4:2:0
Bit depth                                : 8 bits
Scan type                                : Progressive
Title                                    : The.Nut.Job.2.Nutty.by.Nature.2017.1080p.BluRay.REMUX.AVC.DTS-HD.MA.5.1-FGT
Language                                 : English
Default                                  : No
Forced                                   : No

Audio #1
ID                                       : 2
Format                                   : DTS
Format/Info                              : Digital Theater Systems
Format profile                           : MA / Core
Codec ID                                 : A_DTS
Duration                                 : 1 h 31 min
Bit rate mode                            : Variable / Constant
Bit rate                                 : Unknown / 1 509 kb/s
Channel(s)                               : 6 channels
Channel positions                        : Front: L C R, Side: L R, LFE
Sampling rate                            : 48.0 kHz
Frame rate                               : 93.750 FPS (512 SPF)
Bit depth                                : 24 bits
Compression mode                         : Lossless / Lossy
Title                                    : The.Nut.Job.2.Nutty.by.Nature.2017.1080p.BluRay.REMUX.AVC.DTS-HD.MA.5.1-FGT
Language                                 : English
Default                                  : Yes
Forced                                   : No

Audio #2
ID                                       : 3
Format                                   : DTS
Format/Info                              : Digital Theater Systems
Codec ID                                 : A_DTS
Duration                                 : 1 h 31 min
Bit rate mode                            : Constant
Bit rate                                 : 1 509 kb/s
Channel(s)                               : 6 channels
Channel positions                        : Front: L C R, Side: L R, LFE
Sampling rate                            : 48.0 kHz
Frame rate                               : 93.750 FPS (512 SPF)
Bit depth                                : 24 bits
Compression mode                         : Lossy
Stream size                              : 985 MiB (4%)
Title                                    : The.Nut.Job.2.Nutty.by.Nature.2017.1080p.BluRay.REMUX.AVC.DTS-HD.MA.5.1-FGT
Language                                 : English
Default                                  : No
Forced                                   : No

Audio #3
ID                                       : 4
Format                                   : AC-3
Format/Info                              : Audio Coding 3
Codec ID                                 : A_AC3
Duration                                 : 1 h 31 min
Bit rate mode                            : Constant
Bit rate                                 : 192 kb/s
Channel(s)                               : 2 channels
Channel positions                        : Front: L R
Sampling rate                            : 48.0 kHz
Frame rate                               : 31.250 FPS (1536 SPF)
Bit depth                                : 16 bits
Compression mode                         : Lossy
Stream size                              : 125 MiB (0%)
Title                                    : The.Nut.Job.2.Nutty.by.Nature.2017.1080p.BluRay.REMUX.AVC.DTS-HD.MA.5.1-FGT
Language                                 : English
Service kind                             : Complete Main
Default                                  : No
Forced                                   : No

Text #1
ID                                       : 5
Format                                   : PGS
Muxing mode                              : zlib
Codec ID                                 : S_HDMV/PGS
Codec ID/Info                            : Picture based subtitle format used on BDs/HD-DVDs
Title                                    : English-PGS
Language                                 : English
Default                                  : Yes
Forced                                   : No

Text #2
ID                                       : 6
Format                                   : PGS
Muxing mode                              : zlib
Codec ID                                 : S_HDMV/PGS
Codec ID/Info                            : Picture based subtitle format used on BDs/HD-DVDs
Title                                    : Spanish-PGS
Language                                 : Spanish
Default                                  : No
Forced                                   : No

Menu
00:00:00.000                             : en:Chapter 01
00:03:50.188                             : en:Chapter 02
00:08:22.043                             : en:Chapter 03
00:11:13.714                             : en:Chapter 04
00:15:12.036                             : en:Chapter 05
00:21:43.635                             : en:Chapter 06
00:26:14.114                             : en:Chapter 07
00:29:11.833                             : en:Chapter 08
00:34:00.788                             : en:Chapter 09
00:37:21.364                             : en:Chapter 10
00:42:34.510                             : en:Chapter 11
00:48:18.896                             : en:Chapter 12
00:52:09.584                             : en:Chapter 13
00:55:53.391                             : en:Chapter 14
01:02:19.277                             : en:Chapter 15
01:05:39.060                             : en:Chapter 16
01:08:30.648                             : en:Chapter 17
01:13:08.092                             : en:Chapter 18
01:18:30.038                             : en:Chapter 19
01:21:07.529                             : en:Chapter 20

抢劫坚果店2 The.Nut.Job.2.Nutty.by.Nature.2017.1080p.BluRay.REMUX.AVC.DTS-HD.MA.5.1-FGT 25.44G.torrent

最新喜欢:

optimusprime21optimu...
lly1971
风云使者
风云使者
  • 注册日期2015-08-06
  • 发帖数3666
  • 影币3931枚
  • 魔力值1484点
  • 蓝光币33克拉
  • 社区居民
  • 最爱沙发
  • 忠实会员
沙发#
发布于:2017-11-11 18:54
感谢分享!
zjm123
圣骑士
圣骑士
  • 注册日期2016-08-14
  • 发帖数585
  • 影币330枚
  • 魔力值352点
  • 蓝光币87克拉
  • 社区居民
  • 忠实会员
板凳#
发布于:2017-11-12 20:58
感谢分享!
1747699101
精灵王
精灵王
  • 注册日期2016-11-19
  • 发帖数757
  • 影币774枚
  • 魔力值382点
  • 蓝光币461克拉
  • 社区居民
  • 忠实会员
地板#
发布于:2017-11-15 13:29
感谢楼主分享
jitkyio
贫民
贫民
  • 注册日期2017-11-19
  • 发帖数10
  • 影币10枚
  • 魔力值2点
  • 蓝光币0克拉
4楼#
发布于:2017-11-19 20:49
[真实]13岁小少年艹25岁大姐姐使用DV录象尖叫淫淫!


我是少年我怕谁 缓缓的把滚烫巨根插入大姐姐的肉穴!






马上进入:[真实]13岁小少年艹25岁大姐姐使用DV录象尖叫淫淫!



======图片回复可見======
游客
返回顶部