smy
smy
总版主
总版主
  • 注册日期2015-07-27
  • 发帖数1428
  • 影币70306枚
  • 魔力值2329点
  • 蓝光币1克拉
  • 社区居民
  • 忠实会员
  • 喜欢达人
  • 原创写手
阅读:9846回复:348

[SeeHD原创首发]战狼2/新战狼/新战死沙场 Wolf.Warriors.Ⅱ.2017.4K.2160p.&1080p.WEB-DL.x264.AAC-SmY 中英(内嵌)5.43G&2.60G

楼主#
更多 发布于:2017-11-02 20:59


◎译  名 新战狼/新战死沙场
◎片  名 战狼2
◎年  代 2017
◎产  地 中国大陆
◎类  别 动作
◎语  言 汉语普通话/英语
◎上映日期 2017-07-27(中国大陆)
◎IMDb评分  6.7/10 from 2,133 users
◎IMDb链接  http://www.imdb.com/title/tt7131870/
◎豆瓣评分 7.4/10 from 392,877 users
◎豆瓣链接 https://movie.douban.com/subject/26363254/
◎片  长 123分钟
◎导  演 吴京 Jacky Wu
◎主  演 吴京 Jacky Wu
弗兰克·格里罗 Frank Grillo
吴刚 Gang Wu
张翰 Han Zhang
卢靖姗 Celina Jade
丁海峰 Haifeng Ding
淳于珊珊 Shanshan Chunyu
余男 Nan Yu
于谦 Qian Yu
石兆琪 Zhaoqi Shi
海蒂·玛尼梅可 Heidi Moneymaker
奥列格·普鲁迪乌斯 Oleg Aleksandrovich Prudius
阿隆·汤尼 Aaron Toney
泰勒·哈里斯 Thayr Harris
勃小龙 Pierre Bourdaud



◎简  介
       故事发生在非洲附近的大海上,主人公冷锋(吴京 饰)遭遇人生滑铁卢,被“开除军籍”,本想漂泊一生的他,正当他打算这么做的时候,一场突如其来的意外打破了他的计划,突然被卷入了一场非洲国家叛乱,本可以安全撤离,却因无法忘记曾经为军人的使命,孤身犯险冲回沦陷区,带领身陷屠杀中的同胞和难民,展开生死逃亡。随着斗争的持续,体内的狼性逐渐复苏,最终孤身闯入战乱区域,为同胞而战斗。
关于《战狼2》你应该知道的N件事
      开场一段6分钟的水上水下一镜到底镜头,剧组整整拍了半个月。演员和摄影师更是要每天在水中泡超过10个小时。为了赶时间,吴京和工作人员都是直接在水里吃东西,补充能量。2为营造枪战真实感,吴京坚持使用真枪,但流程规范严格的美方团队考虑到安全问题曾不敢让他使用。3美国动作指导萨姆·哈格里夫透露,《战狼2》拍摄中爆点位置多,火力大,算下来炸了上百辆车,2辆20吨的等比例坦克模型和1架飞机模型。4第一次挑战没人玩过的坦克漂移,摄影师险些被坦克的炮筒“削头”。5吴刚第一次拍现代的战争戏,“拜师”吴京后进步飞速,成功完成了“单手换弹夹”。
General
Format                         : Matroska
Format version                 : Version 4 / Version 2
File size                      : 5.43 GiB
Duration                       : 2 h 3 min
Overall bit rate               : 6 320 kb/s
Encoded date                   : UTC 2017-11-02 16:28:00
Writing application            : mkvmerge v7.1.0 ('Good Love') 32bit built on Jul 27 2014 12:59:18
Writing library                : libebml v1.3.0 + libmatroska v1.4.1

Video
ID                             : 1
Format                         : AVC
Format/Info                    : Advanced Video Codec
Format profile                 : High@L5.1
Format settings, CABAC         : Yes
Format settings, ReFrames      : 3 frames
Codec ID                       : V_MPEG4/ISO/AVC
Duration                       : 2 h 3 min
Bit rate                       : 6 255 kb/s
Width                          : 3 840 pixels
Height                         : 1 608 pixels
Display aspect ratio           : 2.40:1
Frame rate mode                : Constant
Frame rate                     : 24.000 FPS
Color space                    : YUV
Chroma subsampling             : 4:2:0
Bit depth                      : 8 bits
Scan type                      : Progressive
Bits/(Pixel*Frame)             : 0.042
Stream size                    : 5.38 GiB (99%)
Default                        : Yes
Forced                         : No
Color range                    : Limited
Color primaries                : BT.709
Transfer characteristics       : BT.709
Matrix coefficients            : BT.709

Audio
ID                             : 2
Format                         : AAC
Format/Info                    : Advanced Audio Codec
Format profile                 : HE-AAC / LC
Codec ID                       : A_AAC
Duration                       : 2 h 3 min
Bit rate                       : 62.9 kb/s
Channel(s)                     : 2 channels
Channel positions              : Front: L R
Sampling rate                  : 44.1 kHz / 22.05 kHz
Frame rate                     : 21.533 FPS (1024 spf)
Compression mode               : Lossy
Stream size                    : 55.4 MiB (1%)
Default                        : Yes
Forced                         : No




 
4K: 5.43G
Wolf.Warriors.Ⅱ.2017.4K.2160p.WEB-DL.x264.AAC-SmY-(SeeHD.co).torrent


1080p:2.60G
Wolf.Warriors.Ⅱ.2017.1080p.WEB-DL.x264.AAC-SmY.torrent
(SmY是无水的承诺)
鼎盛王朝
新手
新手
  • 注册日期2016-01-09
  • 发帖数15
  • 影币19枚
  • 魔力值51点
  • 蓝光币2克拉
  • 社区居民
沙发#
发布于:2017-11-02 21:04
 好电影,已经在电影院看过了,但值得再刷,收藏。
6711059
终生无尚荣耀蓝光粉
终生无尚荣耀蓝光粉
  • 注册日期2016-01-14
  • 发帖数42
  • 影币8913枚
  • 魔力值998点
  • 蓝光币889克拉
  • 社区居民
  • 忠实会员
  • 追星一族
板凳#
发布于:2017-11-02 21:07
必须支持一下。老站看着舒服
Garry
论坛版主
论坛版主
  • 注册日期2017-02-16
  • 发帖数290
  • 影币621枚
  • 魔力值386点
  • 蓝光币13克拉
  • 社区居民
  • 忠实会员
地板#
发布于:2017-11-02 21:15
尼玛!还以为资源已经出来了,结果看到最下边,顿时一下子乐了
goodsyl
圣骑士
圣骑士
  • 注册日期2015-07-29
  • 发帖数93
  • 影币21枚
  • 魔力值846点
  • 蓝光币3克拉
  • 社区居民
  • 忠实会员
4楼#
发布于:2017-11-02 21:22
期待了11月3号~
zshamo
骑士
骑士
  • 注册日期2016-09-11
  • 发帖数97
  • 影币6枚
  • 魔力值360点
  • 蓝光币8克拉
  • 社区居民
  • 忠实会员
5楼#
发布于:2017-11-02 21:28
支持支持
NNMila
骑士
骑士
  • 注册日期2017-01-09
  • 发帖数217
  • 影币189枚
  • 魔力值335点
  • 蓝光币105克拉
  • 社区居民
  • 忠实会员
6楼#
发布于:2017-11-02 21:42
这波可以的啊,,老哥
sun.td
新手
新手
  • 注册日期2017-10-02
  • 发帖数16
  • 影币14枚
  • 魔力值72点
  • 蓝光币5克拉
7楼#
发布于:2017-11-02 21:55
值得收藏!等!
qxb520
骑士
骑士
  • 注册日期2016-06-04
  • 发帖数221
  • 影币177枚
  • 魔力值310点
  • 蓝光币131克拉
  • 社区居民
  • 忠实会员
8楼#
发布于:2017-11-02 22:15
好的!期待中......
SngKin
终生无尚荣耀蓝光粉
终生无尚荣耀蓝光粉
  • 注册日期2016-01-25
  • 发帖数494
  • 影币11827枚
  • 魔力值2001点
  • 蓝光币914克拉
  • 社区居民
  • 忠实会员
9楼#
发布于:2017-11-02 22:17
期待,感谢楼主分享 !
一帆风顺888
圣骑士
圣骑士
  • 注册日期2016-09-19
  • 发帖数127
  • 影币1834枚
  • 魔力值774点
  • 蓝光币9克拉
  • 社区居民
  • 忠实会员
10楼#
发布于:2017-11-02 22:39
Garry:尼玛!还以为资源已经出来了,结果看到最下边,顿时一下子乐了回到原帖
就是,总版也玩起搞笑预告来了。总版,有木有3D的啊?
xingsxi
侠客
侠客
  • 注册日期2017-03-11
  • 发帖数21
  • 影币21枚
  • 魔力值115点
  • 蓝光币2克拉
11楼#
发布于:2017-11-02 22:51
支持下,终于快等到了!!
lhxtyy
骑士
骑士
  • 注册日期2015-07-28
  • 发帖数39
  • 影币26枚
  • 魔力值430点
  • 蓝光币1克拉
  • 社区居民
12楼#
发布于:2017-11-02 23:17
哈哈哈~满怀激动~4K啊。。。仔细的读完每段话。兴致都被吊起来了。正要到下面去下载。。结果~~~翻车了!!!!
huairou001
新手
新手
  • 注册日期2017-10-05
  • 发帖数9
  • 影币17枚
  • 魔力值12点
  • 蓝光币2克拉
  • 社区居民
13楼#
发布于:2017-11-02 23:25
感谢楼主分享资源
bybyfxd
骑士
骑士
  • 注册日期2016-03-04
  • 发帖数67
  • 影币178枚
  • 魔力值526点
  • 蓝光币7克拉
  • 社区居民
  • 忠实会员
14楼#
发布于:2017-11-02 23:30
感谢楼主分享!!!谢谢
上一页
游客
返回顶部