smy
smy
总版主
总版主
  • 注册日期2015-07-27
  • 发帖数1428
  • 影币70323枚
  • 魔力值2331点
  • 蓝光币1克拉
  • 社区居民
  • 忠实会员
  • 喜欢达人
  • 原创写手
阅读:12005回复:557

[SeeHD原创首发]杀破狼·贪狼 Paradox.2017.4K.2160p.WEB-DL.x264.AAC-SmY 中文(内嵌)4.25G

楼主#
更多 发布于:2017-10-20 13:48







◎译  名   Paradox
◎片  名 杀破狼·贪狼/ 殺破狼‧貪狼
◎年  代 2017
◎产  地 香港/中国大陆
◎类  别 剧情/动作
◎语  言 国语
◎上映日期 2017-08-17(中国大陆)/2017-08-25(香港)
◎IMDb评分  7.2/10 from 220 users
◎IMDb链接  http://www.imdb.com/title/tt7245176/
◎豆瓣评分 7.4/10 from 49,507 users
◎豆瓣链接 https://movie.douban.com/subject/26826398/
◎片  长 101分钟
◎导  演 叶伟信 Wilson Yip
◎主  演 古天乐 Louis Koo
吴樾 Yue Wu
托尼·贾 Tony Jaa
林家栋 Ka Tung Lam
克里斯·柯林斯 Chris Collins
郑雪儿 Michelle Saram
卢惠光 Ken Lo
蔡洁 Jacky Cai
陈汉娜 Hanna Chan


◎简  介


香港警察李忠志(古天乐 饰)得知女儿芝(陈汉娜 饰)于泰国旅游间莫名失踪,即亲赴泰国报警求助。负责案件的华人探员崔杰(吴樾 饰),应允让他一同调查,却想不到李忠志利用媒体呼吁市民提供线索。 一条意外拍下芝被捉走的片段上载至警方网站,却被神秘删除。崔杰即连同好友兼同袍Tak(托尼·贾 饰)同赴寻找片主,却遇神秘人马截足灭证,狭路相逢,展开追截并与之搏斗。李忠志与崔杰两人逐步调查,却发现案中有案,并开始意识凶手背后神秘势力非他们能对付……


◎获奖情况


第54届台北金马影展  (2017)
金马奖 最佳动作设计(提名) 洪金宝
General
Format                         : Matroska
Format version                 : Version 4 / Version 2
File size                      : 4.25 GiB
Duration                       : 1 h 40 min
Overall bit rate               : 6 055 kb/s
Encoded date                   : UTC 2017-10-20 08:59:22
Writing application            : mkvmerge v7.1.0 ('Good Love') 32bit built on Jul 27 2014 12:59:18
Writing library                : libebml v1.3.0 + libmatroska v1.4.1

Video
ID                             : 1
Format                         : AVC
Format/Info                    : Advanced Video Codec
Format profile                 : High@L5.1
Format settings, CABAC         : Yes
Format settings, ReFrames      : 3 frames
Codec ID                       : V_MPEG4/ISO/AVC
Duration                       : 1 h 40 min
Bit rate                       : 5 991 kb/s
Width                          : 3 840 pixels
Height                         : 1 608 pixels
Display aspect ratio           : 2.40:1
Frame rate mode                : Constant
Frame rate                     : 24.000 FPS
Color space                    : YUV
Chroma subsampling             : 4:2:0
Bit depth                      : 8 bits
Scan type                      : Progressive
Bits/(Pixel*Frame)             : 0.040
Stream size                    : 4.21 GiB (99%)
Default                        : Yes
Forced                         : No
Color range                    : Limited
Color primaries                : BT.709
Transfer characteristics       : BT.709
Matrix coefficients            : BT.709

Audio
ID                             : 2
Format                         : AAC
Format/Info                    : Advanced Audio Codec
Format profile                 : HE-AAC / LC
Codec ID                       : A_AAC
Duration                       : 1 h 40 min
Bit rate                       : 62.9 kb/s
Channel(s)                     : 2 channels
Channel positions              : Front: L R
Sampling rate                  : 44.1 kHz / 22.05 kHz
Frame rate                     : 21.533 FPS (1024 spf)
Compression mode               : Lossy
Stream size                    : 45.2 MiB (1%)
Default                        : Yes
Forced                         : No




Paradox.2017.4K.2160p.WEB-DL.x264.AAC-SmY-(SeeHD.co).torrent
h2k2
骑士
骑士
  • 注册日期2017-01-25
  • 发帖数8
  • 影币7枚
  • 魔力值356点
  • 蓝光币1克拉
沙发#
发布于:2017-10-20 14:27
感谢发布!下载收藏!
球迷1
骑士
骑士
  • 注册日期2016-06-11
  • 发帖数46
  • 影币55枚
  • 魔力值530点
  • 蓝光币1克拉
板凳#
发布于:2017-10-20 14:30
开开心心的来来来
春天的风
侠客
侠客
  • 注册日期2017-09-26
  • 发帖数161
  • 影币133枚
  • 魔力值98点
  • 蓝光币84克拉
  • 社区居民
  • 忠实会员
地板#
发布于:2017-10-20 14:32
多谢分享。
achosink116
新手
新手
  • 注册日期2016-03-09
  • 发帖数5
  • 影币15枚
  • 魔力值50点
  • 蓝光币3克拉
4楼#
发布于:2017-10-20 14:47
thx for sharing
achosink116
新手
新手
  • 注册日期2016-03-09
  • 发帖数5
  • 影币15枚
  • 魔力值50点
  • 蓝光币3克拉
5楼#
发布于:2017-10-20 16:00
where is the link ?
Hoijuon
圣骑士
圣骑士
  • 注册日期2017-06-07
  • 发帖数580
  • 影币583枚
  • 魔力值143点
  • 蓝光币567克拉
  • 社区居民
  • 忠实会员
6楼#
发布于:2017-10-20 17:46
谢谢分享
509sdyfk
骑士
骑士
  • 注册日期2016-09-13
  • 发帖数18
  • 影币14枚
  • 魔力值566点
  • 蓝光币2克拉
  • 社区居民
7楼#
发布于:2017-10-20 17:51
大神现在迅雷不能下了,请问用什么软件下载
beyondsega
新手
新手
  • 注册日期2017-10-19
  • 发帖数5
  • 影币22枚
  • 魔力值32点
  • 蓝光币1克拉
  • 社区居民
  • 忠实会员
8楼#
发布于:2017-10-20 18:05
还是高清点的好
gewala
侠客
侠客
  • 注册日期2017-01-17
  • 发帖数45
  • 影币12枚
  • 魔力值134点
  • 蓝光币12克拉
  • 社区居民
9楼#
发布于:2017-10-20 18:51
男神古天乐
fengmin212
骑士
骑士
  • 注册日期2016-12-03
  • 发帖数209
  • 影币119枚
  • 魔力值377点
  • 蓝光币14克拉
  • 社区居民
  • 忠实会员
10楼#
发布于:2017-10-20 18:51
感谢发布!下载收藏!
hblzn
贫民
贫民
  • 注册日期2017-10-20
  • 发帖数3
  • 影币3枚
  • 魔力值2点
  • 蓝光币0克拉
  • 社区居民
11楼#
发布于:2017-10-20 18:52
结局有点惨  心疼天乐
YiiY
侠客
侠客
  • 注册日期2016-10-04
  • 发帖数120
  • 影币136枚
  • 魔力值112点
  • 蓝光币36克拉
  • 社区居民
12楼#
发布于:2017-10-20 18:57
感谢发布!
浪迹天涯750901
侠客
侠客
  • 注册日期2015-08-04
  • 发帖数62
  • 影币40枚
  • 魔力值123点
  • 蓝光币6克拉
  • 社区居民
13楼#
发布于:2017-10-20 18:58
感谢发布!下载收藏!
言言伦
圣骑士
圣骑士
  • 注册日期2015-07-28
  • 发帖数95
  • 影币731枚
  • 魔力值631点
  • 蓝光币1克拉
  • 社区居民
  • 忠实会员
14楼#
发布于:2017-10-20 19:00
感谢分享
上一页
游客
返回顶部