smy
smy
总版主
总版主
  • 注册日期2015-07-27
  • 发帖数1428
  • 影币70323枚
  • 魔力值2331点
  • 蓝光币1克拉
  • 社区居民
  • 忠实会员
  • 喜欢达人
  • 原创写手
阅读:11174回复:346

[SeeHD原创首发]心理罪/心理罪大电影【高码/1080p/国语】 Guilty of Mind 2017 1080p WEB-DL x264 AAC-SmY 中文(内嵌)4.65G

楼主#
更多 发布于:2017-10-06 00:56




◎译  名 心理罪大电影/Guilty of Mind
◎片  名 心理罪
◎年  代 2017
◎产  地 中国大陆
◎类  别 动作/犯罪/悬疑
◎语  言 汉语普通话
◎上映日期 2017-08-11(中国大陆)
◎IMDb评分  5.4/10 from 26 users
◎IMDb链接  http://www.imdb.com/title/tt7232860/
◎豆瓣评分 5.4/10 from 49,276 users
◎豆瓣链接 https://movie.douban.com/subject/26698000/
◎片  长 110分钟
◎导  演 谢东燊 Dongshen Xie
◎主  演 廖凡 Fan Liao
李易峰 Yifeng Li
万茜 Qian Wan
李纯 Chun Li
张国柱 Kuo-Chu Chang
谢君豪 Kwan-Ho Tse
封佳奇 Jiaqi Peng
蔡鹭 Lu Cai
虞朗 Lang Yu
范湉湉 Tiantian Fan


◎简  介


一杯人血牛奶,为何会对人产生致命诱惑?
什么样的扭曲心理才会为之痴狂,甚至不惜接二连三,连环杀人?
非同寻常的杀手,超越常理的罪案,需要非同一般的警探。
年轻气盛的犯罪心理学高材生方木(李易峰 饰)出手相助,却被卷入其中;
身手不凡的野兽派刑警队长邰伟(廖凡 饰)嫉恶如仇,却难以走出内心泥沼。
两人联手,却成绝妙拍档!
一场身手的较量,心智的角逐,随之展开……

General
Format                         : MPEG-4
Format profile                 : Base Media
Codec ID                       : isom (isom/avc1)
File size                      : 4.65 GiB
Duration                       : 1 h 50 min
Overall bit rate mode          : Variable
Overall bit rate               : 6 042 kb/s
Encoded date                   : UTC 2017-09-29 09:56:58
Tagged date                    : UTC 2017-09-29 09:56:58
Copyright                      : PPTV-2.4.0.(20,20)[1]

Video
ID                             : 1
Format                         : AVC
Format/Info                    : Advanced Video Codec
Format profile                 : High@L4
Format settings, CABAC         : Yes
Format settings, ReFrames      : 4 frames
Codec ID                       : avc1
Codec ID/Info                  : Advanced Video Coding
Duration                       : 1 h 50 min
Bit rate                       : 6 000 kb/s
Maximum bit rate               : 15.2 Mb/s
Width                          : 1 920 pixels
Height                         : 1 080 pixels
Display aspect ratio           : 16:9
Frame rate mode                : Constant
Frame rate                     : 24.000 FPS
Color space                    : YUV
Chroma subsampling             : 4:2:0
Bit depth                      : 8 bits
Scan type                      : Progressive
Bits/(Pixel*Frame)             : 0.121
Stream size                    : 4.50 GiB (97%)
Title                          : VideoByEZMediaEditor
Writing library                : x264()-core 129 - H.264/MPEG-4
Encoded date                   : UTC 2017-09-29 09:56:58
Tagged date                    : UTC 2017-09-29 09:57:38

Audio
ID                             : 2
Format                         : AAC
Format/Info                    : Advanced Audio Codec
Format profile                 : LC
Codec ID                       : 40
Duration                       : 1 h 50 min
Bit rate mode                  : Variable
Bit rate                       : 192 kb/s
Maximum bit rate               : 198 kb/s
Channel(s)                     : 2 channels
Channel positions              : Front: L R
Sampling rate                  : 44.1 kHz
Frame rate                     : 43.066 FPS (1024 spf)
Compression mode               : Lossy
Stream size                    : 149 MiB (3%)
Title                          : Audio1-English
Language                       : English
Encoded date                   : UTC 2017-09-29 09:57:35
Tagged date                    : UTC 2017-09-29 09:57:38




Guilty of Mind 2017 1080p WEB-DL x264 AAC-SmY-(SeeHD.co).torrent
gjlxyld
贫民
贫民
  • 注册日期2017-10-06
  • 发帖数1
  • 影币1枚
  • 魔力值4点
  • 蓝光币1克拉
沙发#
发布于:2017-10-06 01:03
感谢楼主无私分享
whlfu
圣骑士
圣骑士
  • 注册日期2016-08-31
  • 发帖数174
  • 影币1616枚
  • 魔力值708点
  • 蓝光币35克拉
  • 社区居民
  • 忠实会员
板凳#
发布于:2017-10-06 06:49
剧情比较有意思,多谢分享
zhwhome
精灵王
精灵王
  • 注册日期2015-07-28
  • 发帖数1209
  • 影币2389枚
  • 魔力值2200点
  • 蓝光币58克拉
  • 社区居民
  • 最爱沙发
  • 忠实会员
地板#
发布于:2017-10-06 08:41
谢楼主分享
Hoijuon
圣骑士
圣骑士
  • 注册日期2017-06-07
  • 发帖数580
  • 影币583枚
  • 魔力值143点
  • 蓝光币567克拉
  • 社区居民
  • 忠实会员
4楼#
发布于:2017-10-06 08:42
谢谢分享
Hoijuon
圣骑士
圣骑士
  • 注册日期2017-06-07
  • 发帖数580
  • 影币583枚
  • 魔力值143点
  • 蓝光币567克拉
  • 社区居民
  • 忠实会员
5楼#
发布于:2017-10-06 08:42
谢谢分享
lucifer79
贫民
贫民
  • 注册日期2017-10-06
  • 发帖数2
  • 影币0枚
  • 魔力值2点
  • 蓝光币1克拉
6楼#
发布于:2017-10-06 09:08
谢谢分享
sllhfxsj
骑士
骑士
  • 注册日期2016-08-06
  • 发帖数232
  • 影币252枚
  • 魔力值208点
  • 蓝光币181克拉
7楼#
发布于:2017-10-06 09:29
感谢楼主分享,感谢网站!
wywww
新手
新手
  • 注册日期2017-09-19
  • 发帖数4
  • 影币4枚
  • 魔力值30点
  • 蓝光币3克拉
  • 社区居民
8楼#
发布于:2017-10-06 09:30
一直在找,终于有了,感谢。
gty6122
精灵王
精灵王
  • 注册日期2015-08-03
  • 发帖数1175
  • 影币512枚
  • 魔力值1477点
  • 蓝光币13克拉
  • 最爱沙发
  • 忠实会员
9楼#
发布于:2017-10-06 09:34
心理罪 Guilty of Mind 2017 1080p WEB-DL 【国语】
thank you very much
3Q~~~~~~
hellojiang
骑士
骑士
  • 注册日期2017-01-14
  • 发帖数122
  • 影币66枚
  • 魔力值268点
  • 蓝光币11克拉
  • 社区居民
  • 忠实会员
10楼#
发布于:2017-10-06 09:49
感谢楼主无私分享
amper
精灵王
精灵王
  • 注册日期2016-03-20
  • 发帖数778
  • 影币2529枚
  • 魔力值1043点
  • 蓝光币101克拉
  • 社区居民
  • 忠实会员
11楼#
发布于:2017-10-06 10:15
感谢楼主无私分享
xru458
圣骑士
圣骑士
  • 注册日期2015-10-05
  • 发帖数76
  • 影币127枚
  • 魔力值564点
  • 蓝光币2克拉
12楼#
发布于:2017-10-06 11:01
谢楼主分享
li258735177
圣骑士
圣骑士
  • 注册日期2015-07-30
  • 发帖数142
  • 影币16枚
  • 魔力值803点
  • 蓝光币5克拉
  • 社区居民
  • 忠实会员
13楼#
发布于:2017-10-06 11:10
谢楼主分享.....
nhpanzm
侠客
侠客
  • 注册日期2016-05-17
  • 发帖数85
  • 影币55枚
  • 魔力值158点
  • 蓝光币11克拉
14楼#
发布于:2017-10-06 11:16
学习分享。。
上一页
游客
返回顶部