gananicus
管理员
管理员
  • 注册日期2015-07-28
  • 发帖数784
  • 影币23210枚
  • 魔力值738点
  • 蓝光币1克拉
  • 社区居民
阅读:2772回复:101

[科幻]异星觉醒/外星生命/异星智慧/生命【美版/杰克·吉伦哈尔 /丽贝卡·弗格森主演2017美国科幻大片】Life.2017.1080p.WEB-DL.DD5.1.H264-FGT 3.59GB

楼主#
更多 发布于:2017-06-02 20:15


◎译  名 异星觉醒/外星生命(港)/异星智慧(台)/生命
◎片  名 Life
◎年  代 2017
◎产  地 美国
◎类  别 科幻/惊悚/恐怖
◎语  言 英语/日语
◎上映日期 2017-03-18(西南偏南电影节)/2017-03-24(美国)/2017-05-19(中国大陆)
◎IMDb评分  6.9/10
from 43,400 users
◎IMDb链接  http://www.imdb.com/title/tt5442430/
◎豆瓣评分 6.6/10 from
44,113 users
◎豆瓣链接 https://movie.douban.com/subject/26718838/
◎片  长 104分钟
◎导  演 丹尼尔·伊斯皮诺萨
Daniel Espinosa
◎主  演 杰克·吉伦哈尔 Jake Gyllenhaal
 丽贝卡·弗格森 Rebecca
Ferguson
 瑞恩·雷诺兹 Ryan Reynolds
 真田广之 Hiroyuki
Sanada
 阿利安·巴克瑞 Ariyon Bakare
 奥尔加·戴维克娜雅 Olga
Dihovichnaya
 大卫·梅尔 David Muir
 伊莉莎白·巴尔加斯 Elizabeth
Vargas
 卡米尔·沃伦-泰勒 Camiel Warren-Taylor
 森尚子 Naoko
Mori
 亚历山大·阮 Alexandre Nguyen
 希·伍辛 Hiu
Woong-Sin

◎简  介

 几位漂浮在空间站的宇航员们发现了一个来自火星的“神秘样本”,这个样本其实就是他们一直在找寻的高智能“智慧生命体”。它不仅集肌细胞、神经细胞于一体,更拥有超强大脑,能够进行超能进化。但却不知其体内竟然暗藏巨大的杀机,导致整个空间站都弥漫着死亡的气息,人类的命运也危在旦夕。

Video
ID  
                                     : 1
Format                            
      : AVC
Format/Info                              : Advanced Video
Codec
Format profile                           : High@L4
Format settings,
CABAC                   : Yes
Format settings, ReFrames                : 5
frames
Codec ID                                 :
V_MPEG4/ISO/AVC
Duration                                 : 1h 43mn
Bit
rate                                 : 4 465 Kbps
Width                      
             : 1 920 pixels
Height                                   : 798
pixels
Display aspect ratio                     : 2.40:1
Frame rate mode  
                        : Constant
Frame rate                               :
23.976 fps
Color space                              : YUV
Chroma
subsampling                       : 4:2:0
Bit depth                          
      : 8 bits
Scan type                                :
Progressive
Bits/(Pixel*Frame)                       : 0.122
Stream size  
                            : 3.24 GiB (90%)
Title                          
          : Life.2017.1080p.WEB-DL.DD5.1.H264-FGT
Language                    
             : English
Default                                  :
Yes
Forced                                   : No
Color range              
                : Limited
Color primaries                          :
BT.709
Transfer characteristics                 : BT.709
Matrix
coefficients                      : BT.709

Audio
ID                    
                   : 2
Format                                   :
AC-3
Format/Info                              : Audio Coding 3
Mode
extension                           : CM (complete main)
Format settings,
Endianness              : Big
Codec ID                                 :
A_AC3
Duration                                 : 1h 43mn
Bit rate mode    
                       : Constant
Bit rate                                 :
384 Kbps
Channel(s)                               : 6 channels
Channel
positions                        : Front: L C R, Side: L R, LFE
Sampling
rate                            : 48.0 KHz
Frame rate                      
        : 31.250 fps (1536 spf)
Compression mode                         :
Lossy
Stream size                              : 286 MiB (8%)
Title        
                            : Life.2017.1080p.WEB-DL.DD5.1.H264-FGT
Language  
                               : English
Default                            
     : Yes
Forced                                   : No

附件名称/大小 下载次数 最后更新
Life.2017.1080p.WEB-DL.DD5.1.H264-FGT.torrent (73KB)  379 06-02 20:15

最新喜欢:

leejiantaoleejia... lthw761lthw76... t31725172t31725...
youxiaoxuan
贫民
贫民
  • 注册日期2017-06-02
  • 发帖数3
  • 影币19枚
  • 魔力值4点
  • 蓝光币0克拉
沙发#
发布于:2017-06-02 20:23
异星觉醒 高清版 免费在线观看地址: http://www.1fys.com/DianYing/KeHuanPian/yixingjuexing/
lovendcs
新手
新手
  • 注册日期2016-03-13
  • 发帖数5
  • 影币1枚
  • 魔力值52点
  • 蓝光币0克拉
板凳#
发布于:2017-06-02 20:24
谢谢楼主分享。
maxwills
圣骑士
圣骑士
  • 注册日期2015-12-13
  • 发帖数160
  • 影币23枚
  • 魔力值576点
  • 蓝光币7克拉
地板#
发布于:2017-06-02 20:38
感谢分享
NNMila
圣骑士
圣骑士
  • 注册日期2017-01-09
  • 发帖数259
  • 影币236枚
  • 魔力值360点
  • 蓝光币128克拉
  • 社区居民
  • 忠实会员
4楼#
发布于:2017-06-02 20:46
感谢分享~~~~~~~~~
arthur548
侠客
侠客
  • 注册日期2016-12-13
  • 发帖数47
  • 影币0枚
  • 魔力值250点
  • 蓝光币1克拉
5楼#
发布于:2017-06-02 21:00
arthur548
侠客
侠客
  • 注册日期2016-12-13
  • 发帖数47
  • 影币0枚
  • 魔力值250点
  • 蓝光币1克拉
6楼#
发布于:2017-06-02 21:01
bnm7895123
骑士
骑士
  • 注册日期2017-02-21
  • 发帖数109
  • 影币53枚
  • 魔力值324点
  • 蓝光币7克拉
  • 社区居民
  • 忠实会员
7楼#
发布于:2017-06-02 21:15
谢谢分享
Hayden
骑士
骑士
  • 注册日期2016-05-11
  • 发帖数45
  • 影币3枚
  • 魔力值271点
  • 蓝光币3克拉
  • 社区居民
8楼#
发布于:2017-06-02 21:15
感谢分享
zwq_1215
精灵王
精灵王
  • 注册日期2015-09-08
  • 发帖数182
  • 影币1884枚
  • 魔力值1122点
  • 蓝光币0克拉
9楼#
发布于:2017-06-02 21:18
《异星觉醒》百度云链接:http://yun.baidu.com/s/1sltwy89 密码:xecb
168888
圣骑士
圣骑士
  • 注册日期2016-11-27
  • 发帖数60
  • 影币1枚
  • 魔力值679点
  • 蓝光币0克拉
  • 社区居民
  • 忠实会员
10楼#
发布于:2017-06-02 21:26
谢谢楼主分享。
七厘米蔚蓝
侠客
侠客
  • 注册日期2017-02-08
  • 发帖数23
  • 影币0枚
  • 魔力值274点
  • 蓝光币0克拉
11楼#
发布于:2017-06-02 21:31
谢谢分享
赌徒信者
侠客
侠客
  • 注册日期2016-10-11
  • 发帖数23
  • 影币0枚
  • 魔力值125点
  • 蓝光币0克拉
12楼#
发布于:2017-06-02 21:34
谢谢分享
小猫捉老鼠
新手
新手
  • 注册日期2017-04-28
  • 发帖数5
  • 影币5枚
  • 魔力值22点
  • 蓝光币0克拉
  • 社区居民
13楼#
发布于:2017-06-02 21:38
谢谢分享,辛苦啦
ZEROSH
骑士
骑士
  • 注册日期2017-02-05
  • 发帖数37
  • 影币31枚
  • 魔力值306点
  • 蓝光币1克拉
  • 社区居民
14楼#
发布于:2017-06-02 21:46
好片子 多谢分享
上一页
游客
返回顶部