包包包
骑士
骑士
  • 注册日期2015-07-28
  • 发帖数297
  • 影币5977枚
  • 魔力值252点
  • 蓝光币0克拉
阅读:3059回复:157

血战钢锯岭/钢锯岭/钢铁英雄(台)[iMDB:8.5/10 (36,496 votes) Top 250: #92][2016年12月8日中国上映 - 2D 太平洋战争最后一站] Hacksaw Ridge 2016 HDCAM x264 AC3-TuttyFruity 1.95 GiB

楼主#
更多 发布于:2016-12-17 08:43
血战钢锯岭/钢锯岭/钢铁英雄(台)[iMDB:8.5/10 (36,496 votes) Top 250: #92][2016年12月8日中国上映 - 2D 太平洋战争最后一站] Hacksaw Ridge 2016 HDCAM x264 AC3-TuttyFruity 1.95 GiB

Hacksaw Ridge 2016 HDCAM x264 AC3-TuttyFruity




【影片原名】Hacksaw Ridge
【中文译名】血战钢锯岭/钢锯岭/钢铁英雄(台)
【出品公司】Cross Creek Pictures
【出品年代】2016 年
【上映日期】2016年12月8日 国上映 - 2D
【影片级别】Australia:MA15+ | Canada:14A (British Columbia) | Canada:16+ (Quebec) (original rating) | Canada:13+ (Quebec) (re-rating on appeal) | Hong Kong:IIB
【官方网站】http://www.seehd.co/thread-9/
【IMDB链接】http://www.imdb.com/title/tt2119532/
【IMDB评分】8.5/10 (36,496 votes) Top 250: #92
【国  家】澳大利亚/美国
【类  别】剧情/历史/战争
【导  演】梅尔·吉布森 Mel Gibson
【主  演】安德鲁·加菲尔德 Andrew Garfield ... Desmond Doss
 Richard Pyros ... Teach
 Jacob Warner ... James Pinnick
 Milo Gibson ... Lucky Ford
 Darcy Bryce ... Young Desmond
 Roman Guerriero ... Young 'Hal' Doss
 James Lugton ... Hiker
 Kasia Stelmach ... Hiker's Friend
 雨果·维文 Hugo Weaving ... Tom Doss
 瑞切尔·格里菲斯 Rachel Griffiths ... Bertha Doss
 Jarin Towney ... Teenage Boy
 Tim McGarry ... Local Man
 Tyler Coppin ... Lynchburg Doctor
 Teresa Palmer ... Dorothy Schutte
 理查德·劳斯伯格 Richard Pratt ... Flirting Hospital Soldier



【内容简介】

1945年,第二次世界大战接近尾声,作为邪恶轴心重要成员的日本,其嚣张态势已成强弩之末。是年,决定战局走向的冲绳岛战役拉开序幕,成千上万斗志昂扬的美国大兵被派往冲绳,等待他们的则是敌军重兵防守、凶险异常的钢锯岭。在这群人中间,却有一个不愿拿起武器的军医。他名叫戴斯蒙德·道斯(安德鲁·加菲尔德 Andrew Garfield 饰),来自美国的弗吉尼亚。太平洋爆发之际,瘦弱的戴斯蒙德志愿成为救死扶伤的军医而应征入伍。可因童年和家庭的原因,他始终不愿拿起枪支操练,为此宁愿背上拒服兵役的罪名被送上军事法庭。几经周折,戴斯蒙德最终和战友来到了钢锯岭。枪林弹雨,转瞬之间无数人应声倒地。在信仰和信念的支持下,戴斯蒙德仅凭一己之力拯救了数十条濒死的生命……
 本片根据真人真事改编。

关于《血战钢锯岭》你应该知道的7件事

    1《血战钢锯岭》是梅尔·吉布森执导的第五部作品,距离上部《启示录》(2006)近十年。
    2影片故事背景发生在第二次世界大战太平洋战争中伤亡人数最多的——冲绳岛战役,改编自上等兵军医戴斯蒙德·道斯的真实经历。
    3《血战钢锯岭》被梅尔·吉布森戏称为“百分百澳洲血统的电影”。虽然《钢锯岭》讲述了一个发生在弗吉尼亚州林奇堡和冲绳岛的故事,但是影片全部在澳洲取景,工作人员和大部分的演员都是澳洲人。
    4为了真实再现那片惨绝人寰、尸横遍野的战场,梅尔·吉布森选中澳大利亚悉尼西南部郊区布伦格利的一个农场,并不惜花重金将其炸毁,伪装成钢锯岭的顶端,成功拍出了几万平米的浴血战地场景。
    5为了以“纯实拍”完成拍摄,梅导要求团队将电脑特效的使用降到最低。美术团队在不允许使用3D技术、设计工具、三维动画软件的情况下,用黏土雕塑三维模型,再由置景团队等比还原战场沟壑。
    6钢锯岭戏份均采用实景拍摄,尤其是“火烧鬼子”的戏份,也是采用特殊火直接“喷烧”真人。
    7特效团队做出一种特殊且安全的“炸弹箱”,让镜头与演员都可以无限接近炸点,以营造逼真的拍摄效果。
郑重声明:
 本站提供的所有影视作品均是在网上搜集,任何涉及商业盈利目的均不得使用,否则产生的一切后果将由您自己承担!本站将不对本站的任何内容负任何法律责任!该下载内容仅做宽带测试使用,请在下载后24小时内删除。请购买正版!


 http://extraimage.net/image/wxUG
 
http://www.imdb.com/title/tt2119532/

Format                      : MKV
File size                   : 1.93 GiB
Duration                    : 2 h 2 min
Overall bit rate mode       : Variable
Overall bit rate            : 2 252 kb/s
Video
Format                      : AVC
Format/Info                 : Advanced Video Codec
Format profile              : [email protected] Format settings, CABAC      : Yes
Format settings, ReFrames   : 4 frames
Codec ID                    : V_MPEG4/ISO/AVC
Duration                    : 2 h 2 min
Bit rate mode               : Variable
Bit rate                    : 2 000 kb/s
Maximum bit rate            : 62.5 Mb/s
Width                       : 720 pixels
Height                      : 320 pixels
Display aspect ratio        : 2.25:1
Frame rate mode             : Constant
Frame rate                  : 30.000 FPS
Color space                 : YUV
Chroma subsampling          : 4:2:0
Bit depth                   : 8 bits
Scan type                   : Progressive
Bits/(Pixel*Frame)          : 0.289
Stream size                 : 1.67 GiB
Audio
Format                      : AC-3
Format/Info                 : Audio Coding 3
Mode extension              : CM (complete main)
Format settings, Endianness : Big
Codec ID                    : A_AC3
Duration                    : 2 h 2 min
Bit rate mode               : Constant
Bit rate                    : 256 kb/s
Channel(s)                  : 2 channels
Channel positions           : Front: L R
Sampling rate               : 48.0 kHz
Frame rate                  : 31.250 FPS (1536 spf)
Compression mode            : Lossy
Stream size                 : 225 MiB (11%)
Default                     : Yes
Forced                      : No
 
http://extraimage.net/image/wxUv
http://extraimage.net/image/wxUu
http://extraimage.net/image/wxUA
http://extraimage.net/image/wxUW
http://extraimage.net/image/wxUf
http://extraimage.net/image/wxz8
http://extraimage.net/image/wxza
http://extraimage.net/image/wxzw


对不起!您没有登录,请先登录论坛.
1206171299
终生无尚荣耀蓝光粉
终生无尚荣耀蓝光粉
  • 注册日期2016-09-19
  • 发帖数34
  • 影币8929枚
  • 魔力值1038点
  • 蓝光币888克拉
  • 社区居民
  • 忠实会员
沙发#
发布于:2016-12-17 09:13
还是枪版
easonclock
精灵王
精灵王
  • 注册日期2016-01-27
  • 发帖数332
  • 影币673枚
  • 魔力值683点
  • 蓝光币0克拉
  • 社区居民
  • 忠实会员
板凳#
发布于:2016-12-17 09:21
感谢分享哦
hcdszj
骑士
骑士
  • 注册日期2016-04-23
  • 发帖数46
  • 影币339枚
  • 魔力值322点
  • 蓝光币0克拉
  • 社区居民
  • 忠实会员
地板#
发布于:2016-12-17 09:47
谢谢楼主辛苦制作
bang_guo
终生无尚荣耀蓝光粉
终生无尚荣耀蓝光粉
  • 注册日期2016-03-25
  • 发帖数335
  • 影币17665枚
  • 魔力值2580点
  • 蓝光币889克拉
  • 社区居民
  • 忠实会员
4楼#
发布于:2016-12-17 09:48
感谢要是有高清有的就好了
xbxing
圣骑士
圣骑士
  • 注册日期2016-10-16
  • 发帖数102
  • 影币77枚
  • 魔力值831点
  • 蓝光币0克拉
  • 社区居民
  • 忠实会员
5楼#
发布于:2016-12-17 09:51
感谢分享哦
hhw0621260
圣骑士
圣骑士
  • 注册日期2016-09-27
  • 发帖数144
  • 影币546枚
  • 魔力值687点
  • 蓝光币0克拉
  • 社区居民
  • 忠实会员
6楼#
发布于:2016-12-17 09:54
感谢分享。。
科比别
精灵王
精灵王
  • 注册日期2015-12-20
  • 发帖数99
  • 影币147枚
  • 魔力值930点
  • 蓝光币0克拉
  • 社区居民
  • 忠实会员
7楼#
发布于:2016-12-17 09:55
呵呵哈哈哈看
rocyyp
终生无尚荣耀蓝光粉
终生无尚荣耀蓝光粉
  • 注册日期2016-11-12
  • 发帖数26
  • 影币8905枚
  • 魔力值1094点
  • 蓝光币888克拉
8楼#
发布于:2016-12-17 10:04
213213123213213213123123213
amper
精灵王
精灵王
  • 注册日期2016-03-20
  • 发帖数1054
  • 影币3648枚
  • 魔力值1531点
  • 蓝光币292克拉
  • 社区居民
  • 忠实会员
9楼#
发布于:2016-12-17 10:05
谢楼主辛苦制作
frankm8
圣骑士
圣骑士
  • 注册日期2016-05-01
  • 发帖数101
  • 影币0枚
  • 魔力值778点
  • 蓝光币1克拉
  • 社区居民
  • 忠实会员
10楼#
发布于:2016-12-17 10:05
为什么需要那么多的硬币啊
geastsea
骑士
骑士
  • 注册日期2016-11-26
  • 发帖数94
  • 影币0枚
  • 魔力值260点
  • 蓝光币0克拉
  • 社区居民
11楼#
发布于:2016-12-17 10:06
谢谢楼主辛苦
acfuner
新手
新手
  • 注册日期2016-12-16
  • 发帖数10
  • 影币18枚
  • 魔力值36点
  • 蓝光币0克拉
12楼#
发布于:2016-12-17 10:07
这么快???  枪版?
cwei1027
侠客
侠客
  • 注册日期2016-10-06
  • 发帖数23
  • 影币3枚
  • 魔力值86点
  • 蓝光币0克拉
  • 社区居民
13楼#
发布于:2016-12-17 10:43
感谢分享
56243433
侠客
侠客
  • 注册日期2016-12-07
  • 发帖数16
  • 影币20枚
  • 魔力值113点
  • 蓝光币0克拉
14楼#
发布于:2016-12-17 10:44
看看吧
上一页
游客
返回顶部